Tags
Language
Tags

Channel 4 - Undercover Police: Hunting Paedophiles (2021)

Posted By: Tutorial
1080p (FullHD) / HDTV
Channel 4 - Undercover Police: Hunting Paedophiles (2021)

Channel 4 - Undercover Police: Hunting Paedophiles (2021)
HDTV | 1920 x 1080 | .MKV/HEVC @ 2218 Kbps | 2 h 40 min | 2.63 GB
Audio: English AAC 132 Kbps, 2 channels | Subs: English
Genre: Documentary

Follows officers as they assume new identities online and are given the task of engaging with people who have demonstrated a sexual interest in children.

Chapter 1:
An undercover officer pretends to be a 47-year-old paedophile, claiming he enjoys sexually abusing his 10-year-old daughter and is looking for other men who would like to join him.

Chapter 2:
Following a middle-aged male undercover officer as he assumes a new identity as a 13-year-old girl from Essex and begins engaging online with people who have demonstrated a sexual interest in children. Within minutes of creating an account on a social media site for teenagers, 'Keira' is bombarded with highly sexualised messages from other users, many of whom are adult men.

Chapter 3:
Following an officer who assumes a new identity as Oli, a gay 14-year-old boy from Bedfordshire seeking to explore his newfound sexuality on social media platforms. Before long he is contacted by a number of adult men, some of whom continue engaging with him even when he reveals to them that he is a child. As the conversations quickly turn sexual, the team behind the undercover officer race to identify the app users who are trying to arrange to sexually abuse 'Oli'.

General
Unique ID : 140795520655913963982981064980571761124 (0x69EC3B1E02D15FA21D97E5D03B0629E4)
Complete name : Ch4.Undercover.Police.Hunting.Paedophiles.mkv
Format : Matroska
Format version : Version 4
File size : 2.63 GiB
Duration : 2 h 40 min
Overall bit rate : 2 350 kb/s
Movie name : Undercover Police: Hunting Paedophiles []
Encoded date : UTC 2021-02-23 13:46:09
Writing application : mkvmerge v53.0.0 ('Fool's Gold') 64-bit
Writing library : libebml v1.4.1 + libmatroska v1.6.2

Video
ID : 1
Format : HEVC
Format/Info : High Efficiency Video Coding
Format profile : Main@L4@Main
Codec ID : V_MPEGH/ISO/HEVC
Duration : 2 h 40 min
Bit rate : 2 218 kb/s
Width : 1 920 pixels
Height : 1 080 pixels
Display aspect ratio : 16:9
Frame rate mode : Constant
Frame rate : 25.000 FPS
Color space : YUV
Chroma subsampling : 4:2:0
Bit depth : 8 bits
Bits/(Pixel*Frame) : 0.043
Stream size : 2.48 GiB (94%)
Writing library : x265 3.4+36-5239276dd:[Windows][MSVC 1928][64 bit] 8bit
Encoding settings : cpuid=1111039 / frame-threads=3 / numa-pools=12 / wpp / no-pmode / no-pme / no-psnr / no-ssim / log-level=2 / input-csp=1 / input-res=1920x1080 / interlace=0 / total-frames=99200 / level-idc=0 / high-tier=1 / uhd-bd=0 / ref=3 / no-allow-non-conformance / no-repeat-headers / annexb / no-aud / no-hrd / info / hash=0 / no-temporal-layers / no-open-gop / min-keyint=25 / keyint=250 / gop-lookahead=12 / bframes=6 / b-adapt=2 / b-pyramid / bframe-bias=0 / rc-lookahead=20 / lookahead-slices=6 / scenecut=40 / hist-scenecut=0 / radl=0 / no-splice / no-intra-refresh / ctu=64 / min-cu-size=8 / no-rect / no-amp / max-tu-size=32 / tu-inter-depth=1 / tu-intra-depth=1 / limit-tu=0 / rdoq-level=0 / dynamic-rd=0.00 / no-ssim-rd / signhide / no-tskip / nr-intra=0 / nr-inter=0 / no-constrained-intra / strong-intra-smoothing / max-merge=3 / limit-refs=1 / no-limit-modes / me=2 / subme=2 / merange=48 / temporal-mvp / no-frame-dup / hme / Level / merange / L0,L1,L2=16,32,48 / weightp / weightb / no-analyze-src-pics / deblock=0:0 / sao / no-sao-non-deblock / rd=3 / selective-sao=4 / early-skip / rskip / no-fast-intra / no-tskip-fast / no-cu-lossless / b-intra / no-splitrd-skip / rdpenalty=0 / psy-rd=2.00 / psy-rdoq=0.00 / no-rd-refine / no-lossless / cbqpoffs=0 / crqpoffs=0 / rc=crf / crf=20.0 / qcomp=0.60 / qpstep=4 / stats-write=0 / stats-read=0 / ipratio=1.40 / pbratio=1.30 / aq-mode=4 / aq-strength=1.00 / cutree / zone-count=0 / no-strict-cbr / qg-size=32 / no-rc-grain / qpmax=69 / qpmin=0 / no-const-vbv / sar=1 / overscan=0 / videoformat=5 / range=0 / colorprim=1 / transfer=1 / colormatrix=1 / chromaloc=0 / display-window=0 / cll=0,0 / min-luma=0 / max-luma=255 / log2-max-poc-lsb=8 / vui-timing-info / vui-hrd-info / slices=1 / no-opt-qp-pps / no-opt-ref-list-length-pps / no-multi-pass-opt-rps / scenecut-bias=0.05 / hist-threshold=0.03 / no-opt-cu-delta-qp / no-aq-motion / no-hdr10 / no-hdr10-opt / no-dhdr10-opt / no-idr-recovery-sei / analysis-reuse-level=0 / analysis-save-reuse-level=0 / analysis-load-reuse-level=0 / scale-factor=0 / refine-intra=0 / refine-inter=0 / refine-mv=1 / refine-ctu-distortion=0 / no-limit-sao / ctu-info=0 / no-lowpass-dct / refine-analysis-type=0 / copy-pic=1 / max-ausize-factor=1.0 / no-dynamic-refine / no-single-sei / no-hevc-aq / no-svt / no-field / qp-adaptation-range=1.00 / scenecut-aware-qp=0conformance-window-offsets / right=0 / bottom=0 / decoder-max-rate=0 / no-vbv-live-multi-pass
Language : English
Default : Yes
Forced : No
Color range : Limited
Color primaries : BT.709
Transfer characteristics : BT.709
Matrix coefficients : BT.709

Audio
ID : 2
Format : AAC LC
Format/Info : Advanced Audio Codec Low Complexity
Codec ID : A_AAC-2
Duration : 2 h 40 min
Bit rate : 132 kb/s
Channel(s) : 2 channels
Channel layout : L R
Sampling rate : 48.0 kHz
Frame rate : 46.875 FPS (1024 SPF)
Compression mode : Lossy
Stream size : 149 MiB (6%)
Language : English
Default : Yes
Forced : No

Text
ID : 3
Format : UTF-8
Codec ID : S_TEXT/UTF8
Codec ID/Info : UTF-8 Plain Text
Duration : 2 h 38 min
Bit rate : 84 b/s
Count of elements : 2353
Stream size : 98.5 KiB (0%)
Language : English
Default : No
Forced : No

Menu
00:00:00.000 : en:Part 1
01:06:08.000 : en:Part 2
01:53:14.000 : en:Part 3
Screenshots

Channel 4 - Undercover Police: Hunting Paedophiles (2021)

Channel 4 - Undercover Police: Hunting Paedophiles (2021)

Channel 4 - Undercover Police: Hunting Paedophiles (2021)

Welcome to my blog - daily update!
Channel 4 - Undercover Police: Hunting Paedophiles (2021)