Tags
Language
Tags

Princess Diana: A Life After Death (2018)

Posted By: Tutorial
1080p (FullHD) / WEBRip IMDb
Princess Diana: A Life After Death (2018)

Princess Diana: A Life After Death (2018)
WEBRip | 1920 x 1080 | .MP4/AVC @ 2500 Kbps | 52 min 1 s | 1.01 GB
Audio: English AAC 224 Kbps, 6 channels | Subs: None
Genre: Documentary

Princess Diana: A Life After Death is different from many of the recent programmes commemorating the 20th anniversary of Princess Diana's death. It is not just an anniversary programme. It is a powerful summary of Princess Diana's historical, political and social legacy.

General
Complete name : Princess.Diana.A.Life.After.Death.2018.1080p.WEBRip.x264-RARBG.mp4
Format : MPEG-4
Format profile : Base Media
Codec ID : isom (isom/iso2/avc1/mp41)
File size : 1 015 MiB
Duration : 52 min 1 s
Overall bit rate : 2 728 kb/s
Movie name : Princess.Diana.A.Life.After.Death.2018.1080p.WEBRip.x264-RARBG
Encoded date : UTC 2021-04-21 14:19:39
Tagged date : UTC 2021-04-21 14:19:39
Writing application : Lavf58.20.100
Comment : Princess.Diana.A.Life.After.Death.2018.1080p.WEBRip.x264-RARBG

Video
ID : 1
Format : AVC
Format/Info : Advanced Video Codec
Format profile : High@L4.1
Format settings : CABAC / 4 Ref Frames
Format settings, CABAC : Yes
Format settings, Reference frames : 4 frames
Format settings, GOP : M=3, N=4
Codec ID : avc1
Codec ID/Info : Advanced Video Coding
Duration : 52 min 1 s
Bit rate : 2 500 kb/s
Width : 1 920 pixels
Height : 1 080 pixels
Display aspect ratio : 16:9
Frame rate mode : Constant
Frame rate : 25.000 FPS
Color space : YUV
Chroma subsampling : 4:2:0
Bit depth : 8 bits
Scan type : Progressive
Bits/(Pixel*Frame) : 0.048
Stream size : 930 MiB (92%)
Writing library : x264 core 152 r2851M ba24899
Encoding settings : cabac=1 / ref=4 / deblock=1:-1:-1 / analyse=0x3:0x113 / me=umh / subme=9 / psy=1 / psy_rd=1.00:0.15 / mixed_ref=1 / me_range=24 / chroma_me=1 / trellis=2 / 8x8dct=1 / cqm=0 / deadzone=21,11 / fast_pskip=1 / chroma_qp_offset=-3 / threads=16 / lookahead_threads=4 / sliced_threads=0 / nr=0 / decimate=1 / interlaced=0 / bluray_compat=0 / constrained_intra=0 / bframes=3 / b_pyramid=2 / b_adapt=2 / b_bias=0 / direct=3 / weightb=1 / open_gop=0 / weightp=2 / keyint=250 / keyint_min=25 / scenecut=40 / intra_refresh=0 / rc_lookahead=50 / rc=2pass / mbtree=1 / bitrate=2500 / ratetol=1.0 / qcomp=0.60 / qpmin=0 / qpmax=69 / qpstep=4 / cplxblur=20.0 / qblur=0.5 / vbv_maxrate=31250 / vbv_bufsize=31250 / nal_hrd=none / filler=0 / ip_ratio=1.40 / aq=3:1.00
Encoded date : UTC 2021-04-21 14:19:39
Tagged date : UTC 2021-04-21 14:19:39
Codec configuration box : avcC

Audio
ID : 2
Format : AAC LC
Format/Info : Advanced Audio Codec Low Complexity
Codec ID : mp4a-40-2
Duration : 52 min 1 s
Bit rate mode : Constant
Bit rate : 224 kb/s
Channel(s) : 2 channels
Channel layout : L R
Sampling rate : 48.0 kHz
Frame rate : 46.875 FPS (1024 SPF)
Compression mode : Lossy
Stream size : 83.4 MiB (8%)
Language : English
Default : Yes
Alternate group : 1
Encoded date : UTC 2021-04-21 14:19:39
Tagged date : UTC 2021-04-21 14:19:39
Screenshots

Princess Diana: A Life After Death (2018)

Princess Diana: A Life After Death (2018)

Welcome to my blog - daily update!

Princess Diana: A Life After Death (2018)