Tags
Language
Tags

CH4 Secret History - Queen Victoria and the Crippled Kaiser (2013)

Posted By: Tutorial
1080p (FullHD) / HDTV IMDb
CH4 Secret History - Queen Victoria and the Crippled Kaiser (2013)

CH4 Secret History - Queen Victoria and the Crippled Kaiser (2013)
HDTV | 1920 x 1080 | .MKV/HEVC @ 3002 Kbps | 46 min 55 s | 1.03 GB
Audio: English AAC 132 Kbps, 2 channels | Subs: English
Genre: Documentary

Reveals the secret childhood of Queen Victoria's eldest grandson, the future Kaiser Wilhelm II, through a long-hidden cache of intimate family letters. Wilhelm was born with a permanently paralysed arm - a disability considered shameful at the time - and was subjected to a series of bizarre and often cruel attempts to cure the condition. These childhood experiences are believed to have helped create a highly dysfunctional connection between the boy and his mother, Victoria, Princess Royal, and to have shaped his love-hate relationship with her country.

General
Unique ID : 294949093083707308226836426459055486295 (0xDDE5210906ACFD56857510A68E857557)
Complete name : Ch4.Secret.History.2013.Queen.Victoria.and.the.Crippled.Kaiser.mkv
Format : Matroska
Format version : Version 4 / Version 2
File size : 1.03 GiB
Duration : 46 min 55 s
Overall bit rate : 3 136 kb/s
Movie name : Secret History: Queen Victoria and the Crippled Kaiser []
Encoded date : UTC 2021-06-12 22:46:29
Writing application : mkvmerge v57.0.0 ('Till The End') 64-bit
Writing library : libebml v1.4.2 + libmatroska v1.6.4

Video
ID : 1
Format : HEVC
Format/Info : High Efficiency Video Coding
Format profile : Main@L4@Main
Codec ID : V_MPEGH/ISO/HEVC
Duration : 46 min 55 s
Bit rate : 3 002 kb/s
Width : 1 920 pixels
Height : 1 080 pixels
Display aspect ratio : 16:9
Frame rate mode : Constant
Frame rate : 25.000 FPS
Color space : YUV
Chroma subsampling : 4:2:0
Bit depth : 8 bits
Bits/(Pixel*Frame) : 0.058
Stream size : 1 007 MiB (96%)
Writing library : x265 3.5+10-82786fccc:[Windows][MSVC 1929][64 bit] 8bit
Encoding settings : cpuid=1111039 / frame-threads=3 / numa-pools=12 / wpp / no-pmode / no-pme / no-psnr / no-ssim / log-level=2 / input-csp=1 / input-res=1920x1080 / interlace=0 / total-frames=70393 / level-idc=0 / high-tier=1 / uhd-bd=0 / ref=3 / no-allow-non-conformance / no-repeat-headers / annexb / no-aud / no-eob / no-eos / no-hrd / info / hash=0 / no-temporal-layers / no-open-gop / min-keyint=25 / keyint=250 / gop-lookahead=12 / bframes=6 / b-adapt=2 / b-pyramid / bframe-bias=0 / rc-lookahead=20 / lookahead-slices=6 / scenecut=40 / hist-scenecut=0 / radl=0 / no-splice / no-intra-refresh / ctu=64 / min-cu-size=8 / no-rect / no-amp / max-tu-size=32 / tu-inter-depth=1 / tu-intra-depth=1 / limit-tu=0 / rdoq-level=0 / dynamic-rd=0.00 / no-ssim-rd / signhide / no-tskip / nr-intra=0 / nr-inter=0 / no-constrained-intra / strong-intra-smoothing / max-merge=3 / limit-refs=1 / no-limit-modes / me=2 / subme=2 / merange=48 / temporal-mvp / no-frame-dup / hme / Level / merange / L0,L1,L2=16,32,48 / weightp / weightb / no-analyze-src-pics / deblock=0:0 / sao / no-sao-non-deblock / rd=3 / selective-sao=4 / early-skip / rskip / no-fast-intra / no-tskip-fast / no-cu-lossless / b-intra / no-splitrd-skip / rdpenalty=0 / psy-rd=2.00 / psy-rdoq=0.00 / no-rd-refine / no-lossless / cbqpoffs=0 / crqpoffs=0 / rc=crf / crf=20.0 / qcomp=0.60 / qpstep=4 / stats-write=0 / stats-read=0 / ipratio=1.40 / pbratio=1.30 / aq-mode=4 / aq-strength=1.00 / cutree / zone-count=0 / no-strict-cbr / qg-size=32 / no-rc-grain / qpmax=69 / qpmin=0 / no-const-vbv / sar=1 / overscan=0 / videoformat=5 / range=0 / colorprim=1 / transfer=1 / colormatrix=1 / chromaloc=0 / display-window=0 / cll=0,0 / min-luma=0 / max-luma=255 / log2-max-poc-lsb=8 / vui-timing-info / vui-hrd-info / slices=1 / no-opt-qp-pps / no-opt-ref-list-length-pps / no-multi-pass-opt-rps / scenecut-bias=0.05 / hist-threshold=0.03 / no-opt-cu-delta-qp / no-aq-motion / no-hdr10 / no-hdr10-opt / no-dhdr10-opt / no-idr-recovery-sei / analysis-reuse-level=0 / analysis-save-reuse-level=0 / analysis-load-reuse-level=0 / scale-factor=0 / refine-intra=0 / refine-inter=0 / refine-mv=1 / refine-ctu-distortion=0 / no-limit-sao / ctu-info=0 / no-lowpass-dct / refine-analysis-type=0 / copy-pic=1 / max-ausize-factor=1.0 / no-dynamic-refine / no-single-sei / no-hevc-aq / no-svt / no-field / qp-adaptation-range=1.00 / scenecut-aware-qp=0conformance-window-offsets / right=0 / bottom=0 / decoder-max-rate=0 / no-vbv-live-multi-pass
Language : English
Default : Yes
Forced : No
Color range : Limited
Color primaries : BT.709
Transfer characteristics : BT.709
Matrix coefficients : BT.709

Audio
ID : 2
Format : AAC
Format/Info : Advanced Audio Codec
Format profile : LC
Codec ID : A_AAC-2
Duration : 46 min 55 s
Bit rate : 132 kb/s
Channel(s) : 2 channels
Channel positions : Front: L R
Sampling rate : 48.0 kHz
Frame rate : 46.875 FPS (1024 SPF)
Compression mode : Lossy
Stream size : 44.2 MiB (4%)
Language : English
Default : Yes
Forced : No

Text
ID : 3
Format : UTF-8
Codec ID : S_TEXT/UTF8
Codec ID/Info : UTF-8 Plain Text
Duration : 46 min 26 s
Bit rate : 93 b/s
Count of elements : 688
Stream size : 31.7 KiB (0%)
Language : English
Default : No
Forced : No
Screenshots

CH4 Secret History - Queen Victoria and the Crippled Kaiser (2013)

CH4 Secret History - Queen Victoria and the Crippled Kaiser (2013)

CH4 Secret History - Queen Victoria and the Crippled Kaiser (2013)

Welcome to my blog - daily update!

CH4 Secret History - Queen Victoria and the Crippled Kaiser (2013)