Tags
Language
Tags

Race Against Time: The CIA and 9/11 (2021)

Posted By: Tutorial
1080p (FullHD) / WEBRip IMDb
Race Against Time: The CIA and 9/11 (2021)

Race Against Time: The CIA and 9/11 (2021)
1080p WEBRip | 1920 x 1080 | .MP4/AVC @ 2500 Kbps | 1 h 28 min | English AAC 224 Kbps, 2 ch | 1.69 GB
WEBRip | 720 x 400 | .MP4/AVC @ 1100 Kbps | 1 h 28 min | English AAC 256 Kbps, 2 ch | 865 MB
Genre: Documentary / Subs: English, Español

Follows former top officials and elite operatives inside the CIA as they share accounts of their efforts to stop Osama bin Laden and the catastrophic attack they knew was coming.

General
Complete name : Race.Against.Time.The.CIA.and.9.11.2021.1080p.WEBRip.x264-RARBG.mp4
Format : MPEG-4
Format profile : Base Media
Codec ID : isom (isom/iso2/avc1/mp41)
File size : 1.69 GiB
Duration : 1 h 28 min
Overall bit rate : 2 733 kb/s
Movie name : Race.Against.Time.The.CIA.and.9.11.2021.1080p.WEBRip.x264-RARBG
Encoded date : UTC 2021-09-11 11:40:29
Tagged date : UTC 2021-09-11 11:40:29
Writing application : Lavf58.20.100
Comment : Race.Against.Time.The.CIA.and.9.11.2021.1080p.WEBRip.x264-RARBG

Video
ID : 1
Format : AVC
Format/Info : Advanced Video Codec
Format profile : High@L4.1
Format settings : CABAC / 4 Ref Frames
Format settings, CABAC : Yes
Format settings, RefFrames : 4 frames
Codec ID : avc1
Codec ID/Info : Advanced Video Coding
Duration : 1 h 28 min
Bit rate : 2 500 kb/s
Width : 1 920 pixels
Height : 1 080 pixels
Display aspect ratio : 16:9
Frame rate mode : Constant
Frame rate : 30.000 FPS
Color space : YUV
Chroma subsampling : 4:2:0
Bit depth : 8 bits
Scan type : Progressive
Bits/(Pixel*Frame) : 0.040
Stream size : 1.55 GiB (91%)
Writing library : x264 core 152 r2851M ba24899
Encoding settings : cabac=1 / ref=4 / deblock=1:-1:-1 / analyse=0x3:0x113 / me=umh / subme=9 / psy=1 / psy_rd=1.00:0.15 / mixed_ref=1 / me_range=24 / chroma_me=1 / trellis=2 / 8x8dct=1 / cqm=0 / deadzone=21,11 / fast_pskip=1 / chroma_qp_offset=-3 / threads=16 / lookahead_threads=4 / sliced_threads=0 / nr=0 / decimate=1 / interlaced=0 / bluray_compat=0 / constrained_intra=0 / bframes=3 / b_pyramid=2 / b_adapt=2 / b_bias=0 / direct=3 / weightb=1 / open_gop=0 / weightp=2 / keyint=250 / keyint_min=25 / scenecut=40 / intra_refresh=0 / rc_lookahead=50 / rc=2pass / mbtree=1 / bitrate=2500 / ratetol=1.0 / qcomp=0.60 / qpmin=0 / qpmax=69 / qpstep=4 / cplxblur=20.0 / qblur=0.5 / vbv_maxrate=31250 / vbv_bufsize=31250 / nal_hrd=none / filler=0 / ip_ratio=1.40 / aq=3:1.00
Encoded date : UTC 2021-09-11 11:40:29
Tagged date : UTC 2021-09-11 11:40:29

Audio
ID : 2
Format : AAC
Format/Info : Advanced Audio Codec
Format profile : LC
Codec ID : mp4a-40-2
Duration : 1 h 28 min
Duration_LastFrame : -11 ms
Bit rate mode : Constant
Bit rate : 224 kb/s
Channel(s) : 2 channels
Channel(s)_Original : 6 channels
Channel positions : Front: L C R, Side: L R, LFE
Sampling rate : 48.0 kHz
Frame rate : 46.875 FPS (1024 SPF)
Compression mode : Lossy
Stream size : 142 MiB (8%)
Language : English
Default : Yes
Alternate group : 1
Encoded date : UTC 2021-09-11 11:40:29
Tagged date : UTC 2021-09-11 11:40:29

General
Complete name : Race.Against.Time.The.CIA.and.9.11.2021.WEBRip.x264-ION10.mp4
Format : MPEG-4
Format profile : Base Media
Codec ID : isom (isom/iso2/avc1/mp41)
File size : 865 MiB
Duration : 1 h 28 min
Overall bit rate : 1 365 kb/s
Movie name : RARBG - Race.Against.Time.The.CIA.and.9.11.2021.WEBRip.x264-ION10
Encoded date : UTC 2021-09-11 09:01:11
Tagged date : UTC 2021-09-11 09:01:11
Writing application : Lavf58.20.100
Comment : RARBG - Race.Against.Time.The.CIA.and.9.11.2021.WEBRip.x264-ION10

Video
ID : 1
Format : AVC
Format/Info : Advanced Video Codec
Format profile : High@L3.1
Format settings : CABAC / 5 Ref Frames
Format settings, CABAC : Yes
Format settings, RefFrames : 5 frames
Codec ID : avc1
Codec ID/Info : Advanced Video Coding
Duration : 1 h 28 min
Bit rate : 1 100 kb/s
Width : 720 pixels
Height : 400 pixels
Display aspect ratio : 16:9
Frame rate mode : Constant
Frame rate : 30.000 FPS
Color space : YUV
Chroma subsampling : 4:2:0
Bit depth : 8 bits
Scan type : Progressive
Bits/(Pixel*Frame) : 0.127
Stream size : 697 MiB (81%)
Title : RARBG - Race.Against.Time.The.CIA.and.9.11.2021.WEBRip.x264-ION10
Writing library : x264 core 152 r2851M ba24899
Encoding settings : cabac=1 / ref=5 / deblock=1:-1:-1 / analyse=0x3:0x113 / me=umh / subme=9 / psy=1 / psy_rd=1.00:0.15 / mixed_ref=1 / me_range=16 / chroma_me=1 / trellis=2 / 8x8dct=1 / cqm=0 / deadzone=21,11 / fast_pskip=1 / chroma_qp_offset=-3 / threads=16 / lookahead_threads=1 / sliced_threads=0 / nr=0 / decimate=1 / interlaced=0 / bluray_compat=0 / constrained_intra=0 / bframes=3 / b_pyramid=2 / b_adapt=2 / b_bias=0 / direct=3 / weightb=1 / open_gop=0 / weightp=2 / keyint=250 / keyint_min=25 / scenecut=40 / intra_refresh=0 / rc_lookahead=50 / rc=2pass / mbtree=1 / bitrate=1100 / ratetol=1.0 / qcomp=0.60 / qpmin=0 / qpmax=69 / qpstep=4 / cplxblur=20.0 / qblur=0.5 / ip_ratio=1.40 / aq=1:1.00
Encoded date : UTC 2021-09-11 09:01:11
Tagged date : UTC 2021-09-11 09:01:11

Audio
ID : 2
Format : AAC
Format/Info : Advanced Audio Codec
Format profile : LC
Codec ID : mp4a-40-2
Duration : 1 h 28 min
Duration_LastFrame : -11 ms
Bit rate mode : Constant
Bit rate : 256 kb/s
Channel(s) : 2 channels
Channel positions : Front: L R
Sampling rate : 48.0 kHz
Frame rate : 46.875 FPS (1024 SPF)
Compression mode : Lossy
Stream size : 162 MiB (19%)
Title : RARBG - Race.Against.Time.The.CIA.and.9.11.2021.WEBRip.x264-ION10
Language : English
Default : Yes
Alternate group : 1
Encoded date : UTC 2021-09-11 09:01:11
Tagged date : UTC 2021-09-11 09:01:11
Screenshots 1080p WEBRip

Race Against Time: The CIA and 9/11 (2021)

Screenshots WEBRip

Race Against Time: The CIA and 9/11 (2021)

Welcome to my blog - daily update!
Race Against Time: The CIA and 9/11 (2021)