Tags
Language
Tags

Ray Donovan S01-S04 (2013-2016)

Posted By: JohnSmith
Ray Donovan S01-S04 (2013-2016)

Ray Donovan S01-S04 (2013-2016)
BRRip/WEBRip | MKV / AVC@~1200 kb/s | 848x480 | 48x~60mn | 48x~600 MB
English: AC3, 192 kb/s (2 ch) | Subtitles: English
Genre: Crime | Drama

Ray Donovan, a professional "fixer" for the rich and famous in LA, can make anyone's problems disappear except those created by his own family.

IMDB - Won 1 Golden Globe. Another 2 wins & 36 nominations.



General
Unique ID : 232898170463893927930455476271323492786 (0xAF368E5939333CA59CDE699D5F8331B2)
Complete name : D:\Downloads\Ray.Donovan.S01-S04.480p.BluRay.WEBRip.nSD.x264-NhaNc3\Ray.Donovan.S01E01.480p.BluRay.nSD.x264-NhaNc3.mkv
Format : Matroska
Format version : Version 2
File size : 600 MiB
Duration : 57 min 17 s
Overall bit rate : 1 464 kb/s
Encoded date : UTC 2015-06-13 03:26:28
Writing application : mkvmerge v4.9.1 ('Ich will') built on Jul 11 2011 23:53:15
Writing library : libebml v1.2.1 + libmatroska v1.1.1

Video
ID : 1
Format : AVC
Format/Info : Advanced Video Codec
Format profile : High@L4.1
Format settings, CABAC : Yes
Format settings, ReFrames : 8 frames
Codec ID : V_MPEG4/ISO/AVC
Duration : 57 min 17 s
Bit rate : 1 271 kb/s
Width : 852 pixels
Height : 480 pixels
Display aspect ratio : 16:9
Frame rate mode : Constant
Frame rate : 23.976 FPS
Color space : YUV
Chroma subsampling : 4:2:0
Bit depth : 8 bits
Scan type : Progressive
Bits/(Pixel*Frame) : 0.130
Stream size : 509 MiB (85%)
Writing library : x264 core 146 r2538 121396c
Encoding settings : cabac=1 / ref=8 / deblock=1:0:0 / analyse=0x3:0x113 / me=umh / subme=9 / psy=1 / psy_rd=1.00:0.00 / mixed_ref=1 / me_range=24 / chroma_me=1 / trellis=1 / 8x8dct=1 / cqm=0 / deadzone=21,11 / fast_pskip=1 / chroma_qp_offset=-2 / threads=12 / lookahead_threads=1 / sliced_threads=0 / nr=0 / decimate=1 / interlaced=0 / bluray_compat=0 / constrained_intra=0 / bframes=3 / b_pyramid=2 / b_adapt=1 / b_bias=0 / direct=1 / weightb=1 / open_gop=0 / weightp=2 / keyint=250 / keyint_min=23 / scenecut=40 / intra_refresh=0 / rc_lookahead=40 / rc=2pass / mbtree=1 / bitrate=1271 / ratetol=1.0 / qcomp=0.60 / qpmin=0 / qpmax=69 / qpstep=4 / cplxblur=20.0 / qblur=0.5 / vbv_maxrate=10000 / vbv_bufsize=7500 / nal_hrd=none / filler=0 / ip_ratio=1.40 / aq=1:1.00
Language : English
Default : Yes
Forced : No
Color range : Limited
Color primaries : BT.709
Transfer characteristics : BT.709
Matrix coefficients : BT.709

Audio
ID : 2
Format : AC-3
Format/Info : Audio Coding 3
Format settings, Endianness : Big
Codec ID : A_AC3
Duration : 57 min 17 s
Bit rate mode : Constant
Bit rate : 192 kb/s
Channel(s) : 2 channels
Channel positions : Front: L R
Sampling rate : 48.0 kHz
Frame rate : 31.250 FPS (1536 spf)
Bit depth : 16 bits
Compression mode : Lossy
Stream size : 78.7 MiB (13%)
Language : English
Service kind : Complete Main
Default : Yes
Forced : Yes

Text #1
ID : 3
Format : UTF-8
Codec ID : S_TEXT/UTF8
Codec ID/Info : UTF-8 Plain Text
Language : English
Default : Yes
Forced : No
Statistics Tags Issue : mkvmerge v7.0.0 ('Where We Going') 64bit built on Jun 9 2014 15:16:27 2014-07-22 02:54:34 / mkvmerge v4.9.1 ('Ich will') built on Jul 11 2011 23:53:15 2015-06-13 03:26:28
FromStats_BitRate : 48
FromStats_Duration : 00:54:18.588000000
FromStats_FrameCount : 629
FromStats_StreamSize : 19805

Text #2
ID : 4
Format : UTF-8
Codec ID : S_TEXT/UTF8
Codec ID/Info : UTF-8 Plain Text
Title : SDH
Language : English
Default : No
Forced : No
Statistics Tags Issue : mkvmerge v7.0.0 ('Where We Going') 64bit built on Jun 9 2014 15:16:27 2014-07-22 02:54:34 / mkvmerge v4.9.1 ('Ich will') built on Jul 11 2011 23:53:15 2015-06-13 03:26:28
FromStats_BitRate : 55
FromStats_Duration : 00:55:01.999000000
FromStats_FrameCount : 767
FromStats_StreamSize : 22952

Menu
00:00:00.000 : en:00:00:00.000
00:10:02.977 : en:00:10:02.977
00:20:44.452 : en:00:20:44.452
00:31:09.034 : en:00:31:09.034
00:40:28.259 : en:00:40:28.259
00:49:19.415 : en:00:49:19.415
00:55:39.169 : en:00:55:39.169




Screenshots

Ray Donovan S01-S04 (2013-2016)

Ray Donovan S01-S04 (2013-2016)

Ray Donovan S01-S04 (2013-2016)