Tags
Language
Tags

Rogue One: A Star Wars Story (2016)

Posted By: Without
2160p (4k UHD) / WEBRip IMDb
Rogue One: A Star Wars Story (2016)

Rogue One: A Star Wars Story (2016)
WEBRip 2160p | MKV | 2 h 14 min | 16.2 GB | 3840x2160 | HEVC@16.5 Mb/s
English AC3@768 kb/s, 6 ch
Subs: English, Nederlands, Español
Genre: Action | Adventure | Sci-Fi

The daughter of an Imperial scientist joins the Rebel Alliance in a risky move to steal the Death Star plans.

IMDB - Nominated for 2 Oscars. Another 24 wins & 80 nominations.


General
Rogue.One-A.Star.Wars.Story.2016.HDR.2160p.WEB.H265-PETRiFiED.mkv
Format : Matroska
Format version : Version 4 / Version 2
File size : 16.2 GB
Duration : 2 h 14 min
Overall bit rate : 17.3 Mb/s
Encoded date : UTC 2020-02-05 06:23:23
Writing application : mkvmerge v35.0.0 ('All The Love In The World') 64-bit
Writing library : libebml v1.3.9 + libmatroska v1.5.2

Video
ID : 1
Format : HEVC
Format/Info : High Efficiency Video Coding
Format profile : Main 10@L5@High
Codec ID : V_MPEGH/ISO/HEVC
Duration : 2 h 14 min
Bit rate : 16.5 Mb/s
Width : 3840 pixels
Height : 2160 pixels
Display aspect ratio : 16:9
Frame rate mode : Constant
Frame rate : 23.976 (24000/1001) FPS
Color space : YUV
Chroma subsampling : 4:2:0
Bit depth : 10 bits
Bits/(Pixel*Frame) : 0.083
Stream size : 15.5 GB (96%)
Language : English
Default : Yes
Forced : No
Color range : Limited
Color primaries : BT.2020
Transfer characteristics : SMPTE ST 2084
Matrix coefficients : BT.2020 non-constant

Audio
ID : 2
Format : E-AC-3
Format/Info : Enhanced Audio Coding 3
Format settings, Endianness : Big
Codec ID : A_EAC3
Duration : 2 h 14 min
Bit rate mode : Constant
Bit rate : 768 kb/s
Channel(s) : 6 channels
Channel positions : Front: L C R, Side: L R, LFE
Sampling rate : 48.0 kHz
Frame rate : 187.500 FPS (256 spf)
Compression mode : Lossy
Stream size : 736 MB (4%)
Language : English
Default : Yes
Forced : No

Text #1
ID : 3
Format : UTF-8
Codec ID : S_TEXT/UTF8
Codec ID/Info : UTF-8 Plain Text
Duration : 2 h 5 min
Bit rate : 56 b/s
Count of elements : 1859
Stream size : 51.7 KiB (0%)
Title : English (SDH)
Language : English
Default : No
Forced : No

Text #2
ID : 4
Format : UTF-8
Codec ID : S_TEXT/UTF8
Codec ID/Info : UTF-8 Plain Text
Duration : 2 h 5 min
Bit rate : 49 b/s
Count of elements : 1501
Stream size : 45.2 KiB (0%)
Title : Spanish (Latin American)
Language : Spanish
Default : No
Forced : No

Text #3
ID : 5
Format : UTF-8
Codec ID : S_TEXT/UTF8
Codec ID/Info : UTF-8 Plain Text
Duration : 2 h 5 min
Bit rate : 42 b/s
Count of elements : 1265
Stream size : 39.3 KiB (0%)
Title : Dutch
Language : Dutch
Default : No
Forced : No



Screenshots

Rogue One: A Star Wars Story (2016)

Rogue One: A Star Wars Story (2016)

Rogue One: A Star Wars Story (2016)

Rogue One: A Star Wars Story (2016)

Rogue One: A Star Wars Story (2016)


Come Visit My Blog (•‿•)