BSkyB - Ross Kemp Extreme World Series 5: Syria (2016)

Posted By: Tutorial
BSkyB - Ross Kemp Extreme World Series 5: Syria (2016)

BSkyB - Ross Kemp Extreme World Series 5: Syria (2016)
HDTV | 1280 x 716 | .MP4/AVC @ 2935 Kbps | 43mn 41s | English AAC 160 Kbps, 2 channels | 969 MB
Genre: Documentary

In this concluding episode Ross heads to Syria, where he experiences the Kurdish peoples' fight against ISIS when he is pinned down by sniper fire on the frontline. As he travels across Kurdish-held territory to investigate the fight against the jihadists first hand, Ross meets Kurdish men and women fighters, as well as victims of ISIS occupation, and witnesses the new Kurdish state of Rojava come into being.

General
Complete name : Ross.Kemp.Extreme.World.Series.5.Syria.mp4
Format : MPEG-4
Format profile : Base Media / Version 2
Codec ID : mp42
File size : 969 MiB
Duration : 43mn 41s
Overall bit rate mode : Variable
Overall bit rate : 3 101 Kbps
Encoded date : UTC 2016-10-06 10:55:33
Tagged date : UTC 2016-10-06 10:55:33
Writing application : HandBrake 0.10.5 2016021100

Video
ID : 1
Format : AVC
Format/Info : Advanced Video Codec
Format profile : High@L4.1
Format settings, CABAC : Yes
Format settings, ReFrames : 4 frames
Codec ID : avc1
Codec ID/Info : Advanced Video Coding
Duration : 43mn 41s
Bit rate : 2 935 Kbps
Width : 1 280 pixels
Height : 716 pixels
Display aspect ratio : 16:9
Frame rate mode : Constant
Frame rate : 25.000 fps
Color space : YUV
Chroma subsampling : 4:2:0
Bit depth : 8 bits
Scan type : Progressive
Bits/(Pixel*Frame) : 0.128
Stream size : 917 MiB (95%)
Writing library : x264 core 142 r2479 dd79a61
Encoding settings : cabac=1 / ref=1 / deblock=1:0:0 / analyse=0x3:0x3 / me=dia / subme=1 / psy=1 / psy_rd=1.00:0.00 / mixed_ref=0 / me_range=16 / chroma_me=1 / trellis=0 / 8x8dct=1 / cqm=0 / deadzone=21,11 / fast_pskip=1 / chroma_qp_offset=0 / threads=3 / lookahead_threads=1 / sliced_threads=0 / nr=0 / decimate=1 / interlaced=0 / bluray_compat=0 / constrained_intra=0 / bframes=3 / b_pyramid=2 / b_adapt=1 / b_bias=0 / direct=1 / weightb=1 / open_gop=0 / weightp=1 / keyint=250 / keyint_min=25 / scenecut=40 / intra_refresh=0 / rc_lookahead=0 / rc=crf / mbtree=0 / crf=22.0 / qcomp=0.60 / qpmin=0 / qpmax=69 / qpstep=4 / vbv_maxrate=62500 / vbv_bufsize=78125 / crf_max=0.0 / nal_hrd=none / filler=0 / ip_ratio=1.40 / pb_ratio=1.30 / aq=1:1.00
Encoded date : UTC 2016-10-06 10:55:33
Tagged date : UTC 2016-10-06 10:55:33
Color primaries : BT.709-5, BT.1361, IEC 61966-2-4, SMPTE RP177
Transfer characteristics : BT.709-5, BT.1361
Matrix coefficients : BT.709-5, BT.1361, IEC 61966-2-4 709, SMPTE RP177

Audio
ID : 2
Format : AAC
Format/Info : Advanced Audio Codec
Format profile : LC
Codec ID : 40
Duration : 43mn 40s
Bit rate mode : Variable
Bit rate : 160 Kbps
Channel(s) : 2 channels
Channel positions : Front: L R
Sampling rate : 48.0 KHz
Compression mode : Lossy
Stream size : 50.1 MiB (5%)
Title : Stereo
Encoded date : UTC 2016-10-06 10:55:33
Tagged date : UTC 2016-10-06 10:55:33
Screenshots

BSkyB - Ross Kemp Extreme World Series 5: Syria (2016)

BSkyB - Ross Kemp Extreme World Series 5: Syria (2016)

BSkyB - Ross Kemp Extreme World Series 5: Syria (2016)

Welcome to my blog - daily update!

BSkyB - Ross Kemp Extreme World Series 5: Syria (2016)