Tags
Language
Tags

Star Wars: Episode IV - A New Hope (1977) [Remastered]

Posted By: Without
1080p (FullHD) / BDRip IMDb
Star Wars: Episode IV - A New Hope (1977) [Remastered]

Star Wars: Episode IV - A New Hope (1977)
BRRip 720p | MP4 | 2 h 4 min | 1.51 GB | 1280x536 | AVC@1500 kb/s | English AAC@224 kb/s, 2 ch
BRRip 1080p | MP4 | 2 h 4 min | 2.38 GB | 1920x804 | AVC@2500 kb/s | English AAC@224 kb/s, 2 ch
BDRip 720p | MKV | 2 h 4 min | 4.25 GB | 1280x536 | AVC@3794 kb/s
English AC3@640 kb/s, 6 ch | English AAC@132 kb/s, 2 ch (Commentary)
BDRip 1080p | MKV | 2 h 4 min | 13.7 GB | 1920x804 | AVC@11.4 Mb/s
English DTS-HD MA@3840 kb/s, 8 ch | English AAC@132 kb/s, 2 ch (Commentary)
Subs: English, Italiano, German, Svenska, Norsk, Dansk, Suomi
Genre: Action | Adventure | Fantasy | Sci-Fi

Luke Skywalker joins forces with a Jedi Knight, a cocky pilot, a Wookiee and two droids to save the galaxy from the Empire's world-destroying battle station, while also attempting to rescue Princess Leia from the mysterious Darth Vader.

IMDB - Top Rated Movies #25 | Won 6 Oscars. Another 52 wins & 28 nominations.


General
Star.Wars.Episode.IV.A.New.Hope.1977.REMASTERED.720p.BluRay.H264.AAC.mp4
Format : MPEG-4
Format profile : Base Media
Codec ID : isom (isom/iso2/avc1/mp41)
File size : 1.51 GB
Duration : 2 h 4 min
Overall bit rate : 1731 kb/s
Encoded date : UTC 2020-05-03 09:50:11
Tagged date : UTC 2020-05-03 09:50:11
Writing application : Lavf58.20.100

Video
ID : 1
Format : AVC
Format/Info : Advanced Video Codec
Format profile : High@L4.1
Format settings, CABAC : Yes
Format settings, ReFrames : 4 frames
Codec ID : avc1
Codec ID/Info : Advanced Video Coding
Duration : 2 h 4 min
Bit rate : 1500 kb/s
Width : 1280 pixels
Height : 536 pixels
Display aspect ratio : 2.40:1
Frame rate mode : Constant
Frame rate : 23.976 (23976/1000) FPS
Color space : YUV
Chroma subsampling : 4:2:0
Bit depth : 8 bits
Scan type : Progressive
Bits/(Pixel*Frame) : 0.091
Stream size : 1.31 GB (87%)
Writing library : x264 core 152 r2851M ba24899
Encoding settings : cabac=1 / ref=4 / deblock=1:-1:-1 / analyse=0x3:0x113 / me=umh / subme=9 / psy=1 / psy_rd=1.00:0.15 / mixed_ref=1 / me_range=24 / chroma_me=1 / trellis=2 / 8x8dct=1 / cqm=0 / deadzone=21,11 / fast_pskip=1 / chroma_qp_offset=-3 / threads=16 / lookahead_threads=4 / sliced_threads=0 / nr=0 / decimate=1 / interlaced=0 / bluray_compat=0 / constrained_intra=0 / bframes=3 / b_pyramid=2 / b_adapt=2 / b_bias=0 / direct=3 / weightb=1 / open_gop=0 / weightp=2 / keyint=250 / keyint_min=25 / scenecut=40 / intra_refresh=0 / rc_lookahead=50 / rc=2pass / mbtree=1 / bitrate=1500 / ratetol=1.0 / qcomp=0.60 / qpmin=0 / qpmax=69 / qpstep=4 / cplxblur=20.0 / qblur=0.5 / vbv_maxrate=31250 / vbv_bufsize=31250 / nal_hrd=none / filler=0 / ip_ratio=1.40 / aq=3:1.00
Encoded date : UTC 2020-05-03 09:50:11
Tagged date : UTC 2020-05-03 09:50:11

Audio
ID : 2
Format : AAC
Format/Info : Advanced Audio Codec
Format profile : LC
Codec ID : 40
Duration : 2 h 4 min
Bit rate mode : Constant
Bit rate : 224 kb/s
Channel(s) : 2 channels
Channel(s)_Original : 6 channels
Channel positions : Front: L C R, Side: L R, LFE
Sampling rate : 48.0 kHz
Frame rate : 46.875 FPS (1024 spf)
Compression mode : Lossy
Stream size : 200 MB (13%)
Language : English
Default : Yes
Alternate group : 1
Encoded date : UTC 2020-05-03 09:50:11
Tagged date : UTC 2020-05-03 09:50:11


General
Star.Wars.Episode.IV.A.New.Hope.1977.REMASTERED.1080p.BluRay.H264.AAC.mp4
Format : MPEG-4
Format profile : Base Media
Codec ID : isom (isom/iso2/avc1/mp41)
File size : 2.38 GB
Duration : 2 h 4 min
Overall bit rate : 2730 kb/s
Encoded date : UTC 2020-05-03 11:14:23
Tagged date : UTC 2020-05-03 11:14:23
Writing application : Lavf58.20.100

Video
ID : 1
Format : AVC
Format/Info : Advanced Video Codec
Format profile : High@L4.1
Format settings, CABAC : Yes
Format settings, ReFrames : 4 frames
Codec ID : avc1
Codec ID/Info : Advanced Video Coding
Duration : 2 h 4 min
Bit rate : 2500 kb/s
Width : 1920 pixels
Height : 804 pixels
Display aspect ratio : 2.40:1
Frame rate mode : Constant
Frame rate : 23.976 (23976/1000) FPS
Color space : YUV
Chroma subsampling : 4:2:0
Bit depth : 8 bits
Scan type : Progressive
Bits/(Pixel*Frame) : 0.068
Stream size : 2.18 GB (92%)
Writing library : x264 core 152 r2851M ba24899
Encoding settings : cabac=1 / ref=4 / deblock=1:-1:-1 / analyse=0x3:0x113 / me=umh / subme=9 / psy=1 / psy_rd=1.00:0.15 / mixed_ref=1 / me_range=24 / chroma_me=1 / trellis=2 / 8x8dct=1 / cqm=0 / deadzone=21,11 / fast_pskip=1 / chroma_qp_offset=-3 / threads=16 / lookahead_threads=4 / sliced_threads=0 / nr=0 / decimate=1 / interlaced=0 / bluray_compat=0 / constrained_intra=0 / bframes=3 / b_pyramid=2 / b_adapt=2 / b_bias=0 / direct=3 / weightb=1 / open_gop=0 / weightp=2 / keyint=250 / keyint_min=25 / scenecut=40 / intra_refresh=0 / rc_lookahead=50 / rc=2pass / mbtree=1 / bitrate=2500 / ratetol=1.0 / qcomp=0.60 / qpmin=0 / qpmax=69 / qpstep=4 / cplxblur=20.0 / qblur=0.5 / vbv_maxrate=31250 / vbv_bufsize=31250 / nal_hrd=none / filler=0 / ip_ratio=1.40 / aq=3:1.00
Encoded date : UTC 2020-05-03 11:14:23
Tagged date : UTC 2020-05-03 11:14:23

Audio
ID : 2
Format : AAC
Format/Info : Advanced Audio Codec
Format profile : LC
Codec ID : 40
Duration : 2 h 4 min
Bit rate mode : Constant
Bit rate : 224 kb/s
Channel(s) : 2 channels
Channel(s)_Original : 6 channels
Channel positions : Front: L C R, Side: L R, LFE
Sampling rate : 48.0 kHz
Frame rate : 46.875 FPS (1024 spf)
Compression mode : Lossy
Stream size : 200 MB (8%)
Language : English
Default : Yes
Alternate group : 1
Encoded date : UTC 2020-05-03 11:14:23
Tagged date : UTC 2020-05-03 11:14:23


General
Star.Wars.Episode.IV.A.New.Hope.1977.REMASTERED.720p.BluRay.X264-AMIABLE.mkv
Format : Matroska
Format version : Version 4 / Version 2
File size : 4.25 GB
Duration : 2 h 4 min
Overall bit rate : 4876 kb/s
Writing application : mkvmerge v44.0.0 ('Domino') 64-bit
Writing library : libebml v1.3.10 + libmatroska v1.5.2

Video
ID : 1
Format : AVC
Format/Info : Advanced Video Codec
Format profile : High@L4.1
Format settings, CABAC : Yes
Format settings, ReFrames : 12 frames
Codec ID : V_MPEG4/ISO/AVC
Duration : 2 h 4 min
Bit rate : 3794 kb/s
Width : 1280 pixels
Height : 536 pixels
Display aspect ratio : 2.40:1
Frame rate mode : Constant
Frame rate : 23.976 (24000/1001) FPS
Color space : YUV
Chroma subsampling : 4:2:0
Bit depth : 8 bits
Scan type : Progressive
Bits/(Pixel*Frame) : 0.231
Stream size : 3.31 GB (78%)
Writing library : x264 core 159 r2991 1771b55
Encoding settings : cabac=1 / ref=12 / deblock=1:-3:-3 / analyse=0x3:0x133 / me=umh / subme=10 / psy=1 / psy_rd=1.05:0.00 / mixed_ref=1 / me_range=32 / chroma_me=1 / trellis=2 / 8x8dct=1 / cqm=0 / deadzone=21,11 / fast_pskip=0 / chroma_qp_offset=-2 / threads=17 / lookahead_threads=4 / sliced_threads=0 / nr=0 / decimate=0 / interlaced=0 / bluray_compat=0 / constrained_intra=0 / bframes=10 / b_pyramid=2 / b_adapt=2 / b_bias=0 / direct=3 / weightb=1 / open_gop=0 / weightp=2 / keyint=240 / keyint_min=24 / scenecut=40 / intra_refresh=0 / rc=crf / mbtree=0 / crf=17.0 / qcomp=0.65 / qpmin=0 / qpmax=69 / qpstep=4 / ip_ratio=1.30 / pb_ratio=1.20 / aq=3:0.70
Default : Yes
Forced : No
Color range : Limited
Matrix coefficients : BT.709

Audio #1
ID : 2
Format : AC-3
Format/Info : Audio Coding 3
Mode extension : CM (complete main)
Format settings, Endianness : Big
Codec ID : A_AC3
Duration : 2 h 4 min
Bit rate mode : Constant
Bit rate : 640 kb/s
Channel(s) : 6 channels
Channel positions : Front: L C R, Side: L R, LFE
Sampling rate : 48.0 kHz
Frame rate : 31.250 FPS (1536 spf)
Bit depth : 16 bits
Compression mode : Lossy
Stream size : 571 MB (13%)
Language : English
Default : Yes
Forced : No

Audio #2
ID : 18
Format : AAC
Format/Info : Advanced Audio Codec
Format profile : LC
Codec ID : A_AAC
Duration : 2 h 4 min
Bit rate : 132 kb/s
Channel(s) : 2 channels
Channel positions : Front: L R
Sampling rate : 48.0 kHz
Frame rate : 46.875 FPS (1024 spf)
Compression mode : Lossy
Delay relative to video : 9 ms
Stream size : 116 MB (3%)
Title : Commentary with George Lucas, Carrie Fisher, Ben Burtt, and Dennis Muren
Language : English
Default : No
Forced : No

Audio #3
ID : 19
Format : AAC
Format/Info : Advanced Audio Codec
Format profile : LC
Codec ID : A_AAC
Duration : 2 h 4 min
Bit rate : 125 kb/s
Channel(s) : 2 channels
Channel positions : Front: L R
Sampling rate : 48.0 kHz
Frame rate : 46.875 FPS (1024 spf)
Compression mode : Lossy
Delay relative to video : 9 ms
Stream size : 111 MB (3%)
Title : Commentary with Cast and Crew
Language : English
Default : No
Forced : No

Text #1
ID : 3
Format : UTF-8
Codec ID : S_TEXT/UTF8
Codec ID/Info : UTF-8 Plain Text
Duration : 1 h 57 min
Bit rate : 61 b/s
Count of elements : 1371
Stream size : 52.9 KiB (0%)
Title : Stripped SRT
Language : English
Default : No
Forced : No

Text #2
ID : 4
Format : UTF-8
Codec ID : S_TEXT/UTF8
Codec ID/Info : UTF-8 Plain Text
Duration : 1 h 59 min
Bit rate : 63 b/s
Count of elements : 1503
Stream size : 56.0 KiB (0%)
Title : SDH SRT
Language : English
Default : No
Forced : No

Text #3
ID : 5
Format : PGS
Muxing mode : zlib
Codec ID : S_HDMV/PGS
Codec ID/Info : Picture based subtitle format used on BDs/HD-DVDs
Duration : 1 h 59 min
Bit rate : 40.1 kb/s
Count of elements : 3006
Stream size : 34.3 MB (1%)
Title : English SDH
Language : English
Default : No
Forced : No

Text #4
ID : 6
Format : PGS
Muxing mode : zlib
Codec ID : S_HDMV/PGS
Codec ID/Info : Picture based subtitle format used on BDs/HD-DVDs
Duration : 2 h 2 min
Bit rate : 70.0 kb/s
Count of elements : 3805
Stream size : 61.5 MB (1%)
Title : Commentary with George Lucas, Carrie Fisher, Ben Burtt, and Dennis Muren
Language : English
Default : No
Forced : No

Text #5
ID : 7
Format : PGS
Muxing mode : zlib
Codec ID : S_HDMV/PGS
Codec ID/Info : Picture based subtitle format used on BDs/HD-DVDs
Duration : 2 h 4 min
Bit rate : 70.7 kb/s
Count of elements : 4095
Stream size : 62.8 MB (1%)
Title : Commentary with Cast and Crew
Language : English
Default : No
Forced : No

Text #6
ID : 8
Format : PGS
Muxing mode : zlib
Codec ID : S_HDMV/PGS
Codec ID/Info : Picture based subtitle format used on BDs/HD-DVDs
Duration : 1 h 58 min
Bit rate : 37.2 kb/s
Count of elements : 2622
Stream size : 31.4 MB (1%)
Title : Italian
Language : Italian
Default : No
Forced : No

Text #7
ID : 9
Format : PGS
Muxing mode : zlib
Codec ID : S_HDMV/PGS
Codec ID/Info : Picture based subtitle format used on BDs/HD-DVDs
Duration : 2 h 2 min
Bit rate : 60.8 kb/s
Count of elements : 3819
Stream size : 53.4 MB (1%)
Title : Commentary with George Lucas, Carrie Fisher, Ben Burtt, and Dennis Muren
Language : Italian
Default : No
Forced : No

Text #8
ID : 10
Format : PGS
Muxing mode : zlib
Codec ID : S_HDMV/PGS
Codec ID/Info : Picture based subtitle format used on BDs/HD-DVDs
Duration : 2 h 4 min
Bit rate : 66.9 kb/s
Count of elements : 4029
Stream size : 59.4 MB (1%)
Title : Commentary with Cast and Crew
Language : Italian
Default : No
Forced : No

Text #9
ID : 11
Format : PGS
Muxing mode : zlib
Codec ID : S_HDMV/PGS
Codec ID/Info : Picture based subtitle format used on BDs/HD-DVDs
Duration : 1 h 58 min
Bit rate : 43.7 kb/s
Count of elements : 2754
Stream size : 36.9 MB (1%)
Title : German
Language : German
Default : No
Forced : No

Text #10
ID : 12
Format : PGS
Muxing mode : zlib
Codec ID : S_HDMV/PGS
Codec ID/Info : Picture based subtitle format used on BDs/HD-DVDs
Duration : 2 h 2 min
Bit rate : 68.2 kb/s
Count of elements : 3719
Stream size : 59.9 MB (1%)
Title : Commentary with George Lucas, Carrie Fisher, Ben Burtt, and Dennis Muren
Language : German
Default : No
Forced : No

Text #11
ID : 13
Format : PGS
Muxing mode : zlib
Codec ID : S_HDMV/PGS
Codec ID/Info : Picture based subtitle format used on BDs/HD-DVDs
Duration : 2 h 4 min
Bit rate : 69.7 kb/s
Count of elements : 3943
Stream size : 61.9 MB (1%)
Title : Commentary with Cast and Crew
Language : German
Default : No
Forced : No

Text #12
ID : 14
Format : PGS
Muxing mode : zlib
Codec ID : S_HDMV/PGS
Codec ID/Info : Picture based subtitle format used on BDs/HD-DVDs
Duration : 1 h 58 min
Bit rate : 26.3 kb/s
Count of elements : 2062
Stream size : 22.2 MB (1%)
Title : Swedish
Language : Swedish
Default : No
Forced : No

Text #13
ID : 15
Format : PGS
Muxing mode : zlib
Codec ID : S_HDMV/PGS
Codec ID/Info : Picture based subtitle format used on BDs/HD-DVDs
Duration : 1 h 58 min
Bit rate : 24.2 kb/s
Count of elements : 2054
Stream size : 20.4 MB (0%)
Title : Norwegian
Language : Norwegian
Default : No
Forced : No

Text #14
ID : 16
Format : PGS
Muxing mode : zlib
Codec ID : S_HDMV/PGS
Codec ID/Info : Picture based subtitle format used on BDs/HD-DVDs
Duration : 1 h 58 min
Bit rate : 27.5 kb/s
Count of elements : 2054
Stream size : 23.2 MB (1%)
Title : Danish
Language : Danish
Default : No
Forced : No

Text #15
ID : 17
Format : PGS
Muxing mode : zlib
Codec ID : S_HDMV/PGS
Codec ID/Info : Picture based subtitle format used on BDs/HD-DVDs
Duration : 1 h 58 min
Bit rate : 27.3 kb/s
Count of elements : 2078
Stream size : 23.0 MB (1%)
Title : Finnish
Language : Finnish
Default : No
Forced : No

Menu
00:00:00.000 : en:Chapter 01
00:00:21.688 : en:Chapter 02
00:01:54.072 : en:Chapter 03
00:04:53.460 : en:Chapter 04
00:07:28.948 : en:Chapter 05
00:08:55.535 : en:Chapter 06
00:11:22.056 : en:Chapter 07
00:15:40.898 : en:Chapter 08
00:19:40.846 : en:Chapter 09
00:23:33.871 : en:Chapter 10
00:25:33.282 : en:Chapter 11
00:27:46.164 : en:Chapter 12
00:29:13.377 : en:Chapter 13
00:32:34.744 : en:Chapter 14
00:34:53.675 : en:Chapter 15
00:36:54.879 : en:Chapter 16
00:39:06.302 : en:Chapter 17
00:41:42.959 : en:Chapter 18
00:42:32.216 : en:Chapter 19
00:44:52.398 : en:Chapter 20
00:47:53.287 : en:Chapter 21
00:49:58.662 : en:Chapter 22
00:51:14.571 : en:Chapter 23
00:52:41.700 : en:Chapter 24
00:54:13.250 : en:Chapter 25
00:57:00.834 : en:Chapter 26
00:59:13.758 : en:Chapter 27
01:03:11.746 : en:Chapter 28
01:06:17.390 : en:Chapter 29
01:08:22.890 : en:Chapter 30
01:12:33.266 : en:Chapter 31
01:14:13.574 : en:Chapter 32
01:17:14.630 : en:Chapter 33
01:19:10.245 : en:Chapter 34
01:21:30.302 : en:Chapter 35
01:25:01.138 : en:Chapter 36
01:27:03.009 : en:Chapter 37
01:29:57.100 : en:Chapter 38
01:33:49.374 : en:Chapter 39
01:36:40.795 : en:Chapter 40
01:38:07.673 : en:Chapter 41
01:39:38.431 : en:Chapter 42
01:41:25.955 : en:Chapter 43
01:42:38.319 : en:Chapter 44
01:45:03.547 : en:Chapter 45
01:49:43.702 : en:Chapter 46
01:55:19.830 : en:Chapter 47
01:57:48.395 : en:Chapter 48
01:58:29.436 : en:Chapter 49
02:00:15.416 : en:Chapter 50


General
Star.Wars.Episode.IV.A.New.Hope.1977.REMASTERED.1080p.BluRay.X264-AMIABLE.mkv
Format : Matroska
Format version : Version 4 / Version 2
File size : 13.7 GB
Duration : 2 h 4 min
Overall bit rate : 15.7 Mb/s
Writing application : mkvmerge v44.0.0 ('Domino') 64-bit
Writing library : libebml v1.3.10 + libmatroska v1.5.2

Video
ID : 1
Format : AVC
Format/Info : Advanced Video Codec
Format profile : High@L4.1
Format settings, CABAC : Yes
Format settings, ReFrames : 5 frames
Codec ID : V_MPEG4/ISO/AVC
Duration : 2 h 4 min
Bit rate : 11.4 Mb/s
Width : 1920 pixels
Height : 804 pixels
Display aspect ratio : 2.40:1
Frame rate mode : Constant
Frame rate : 23.976 (24000/1001) FPS
Color space : YUV
Chroma subsampling : 4:2:0
Bit depth : 8 bits
Scan type : Progressive
Bits/(Pixel*Frame) : 0.309
Stream size : 9.96 GB (73%)
Writing library : x264 core 159 r2991 1771b55
Encoding settings : cabac=1 / ref=5 / deblock=1:-3:-3 / analyse=0x3:0x133 / me=umh / subme=10 / psy=1 / psy_rd=1.05:0.00 / mixed_ref=1 / me_range=48 / chroma_me=1 / trellis=2 / 8x8dct=1 / cqm=0 / deadzone=21,11 / fast_pskip=0 / chroma_qp_offset=-2 / threads=25 / lookahead_threads=6 / sliced_threads=0 / nr=0 / decimate=0 / interlaced=0 / bluray_compat=0 / constrained_intra=0 / bframes=10 / b_pyramid=2 / b_adapt=2 / b_bias=0 / direct=3 / weightb=1 / open_gop=0 / weightp=2 / keyint=240 / keyint_min=24 / scenecut=40 / intra_refresh=0 / rc=crf / mbtree=0 / crf=17.0 / qcomp=0.65 / qpmin=0 / qpmax=69 / qpstep=4 / ip_ratio=1.30 / pb_ratio=1.20 / aq=3:0.70
Default : Yes
Forced : No
Color range : Limited
Matrix coefficients : BT.709

Audio #1
ID : 2
Format : DTS
Format/Info : Digital Theater Systems
Format profile : MA / Core
Mode : 16
Format settings, Endianness : Big
Codec ID : A_DTS
Duration : 2 h 4 min
Bit rate mode : Variable / Constant
Bit rate : 3840 kb/s / 1509 kb/s
Channel(s) : 8 channels / 6 channels
Channel positions : Front: L C R, Side: L R, Back: L R, LFE / Front: L C R, Side: L R, LFE
Sampling rate : 48.0 kHz
Frame rate : 93.750 FPS (512 spf)
Bit depth : 24 bits
Compression mode : Lossless / Lossy
Stream size : 3.31 GB (24%)
Language : English
Default : Yes
Forced : No

Audio #2
ID : 18
Format : AAC
Format/Info : Advanced Audio Codec
Format profile : LC
Codec ID : A_AAC
Duration : 2 h 4 min
Bit rate : 132 kb/s
Channel(s) : 2 channels
Channel positions : Front: L R
Sampling rate : 48.0 kHz
Frame rate : 46.875 FPS (1024 spf)
Compression mode : Lossy
Delay relative to video : 9 ms
Stream size : 116 MB (1%)
Title : Commentary with George Lucas, Carrie Fisher, Ben Burtt, and Dennis Muren
Language : English
Default : No
Forced : No

Audio #3
ID : 19
Format : AAC
Format/Info : Advanced Audio Codec
Format profile : LC
Codec ID : A_AAC
Duration : 2 h 4 min
Bit rate : 125 kb/s
Channel(s) : 2 channels
Channel positions : Front: L R
Sampling rate : 48.0 kHz
Frame rate : 46.875 FPS (1024 spf)
Compression mode : Lossy
Delay relative to video : 9 ms
Stream size : 111 MB (1%)
Title : Commentary with Cast and Crew
Language : English
Default : No
Forced : No

Text #1
ID : 3
Format : UTF-8
Codec ID : S_TEXT/UTF8
Codec ID/Info : UTF-8 Plain Text
Duration : 1 h 57 min
Bit rate : 61 b/s
Count of elements : 1371
Stream size : 52.9 KiB (0%)
Title : Stripped SRT
Language : English
Default : No
Forced : No

Text #2
ID : 4
Format : UTF-8
Codec ID : S_TEXT/UTF8
Codec ID/Info : UTF-8 Plain Text
Duration : 1 h 59 min
Bit rate : 63 b/s
Count of elements : 1503
Stream size : 56.0 KiB (0%)
Title : SDH SRT
Language : English
Default : No
Forced : No

Text #3
ID : 5
Format : PGS
Muxing mode : zlib
Codec ID : S_HDMV/PGS
Codec ID/Info : Picture based subtitle format used on BDs/HD-DVDs
Duration : 1 h 59 min
Bit rate : 40.1 kb/s
Count of elements : 3006
Stream size : 34.3 MB (0%)
Title : English SDH
Language : English
Default : No
Forced : No

Text #4
ID : 6
Format : PGS
Muxing mode : zlib
Codec ID : S_HDMV/PGS
Codec ID/Info : Picture based subtitle format used on BDs/HD-DVDs
Duration : 2 h 2 min
Bit rate : 70.0 kb/s
Count of elements : 3805
Stream size : 61.5 MB (0%)
Title : Commentary with George Lucas, Carrie Fisher, Ben Burtt, and Dennis Muren
Language : English
Default : No
Forced : No

Text #5
ID : 7
Format : PGS
Muxing mode : zlib
Codec ID : S_HDMV/PGS
Codec ID/Info : Picture based subtitle format used on BDs/HD-DVDs
Duration : 2 h 4 min
Bit rate : 70.7 kb/s
Count of elements : 4095
Stream size : 62.8 MB (0%)
Title : Commentary with Cast and Crew
Language : English
Default : No
Forced : No

Text #6
ID : 8
Format : PGS
Muxing mode : zlib
Codec ID : S_HDMV/PGS
Codec ID/Info : Picture based subtitle format used on BDs/HD-DVDs
Duration : 1 h 58 min
Bit rate : 37.2 kb/s
Count of elements : 2622
Stream size : 31.4 MB (0%)
Title : Italian
Language : Italian
Default : No
Forced : No

Text #7
ID : 9
Format : PGS
Muxing mode : zlib
Codec ID : S_HDMV/PGS
Codec ID/Info : Picture based subtitle format used on BDs/HD-DVDs
Duration : 2 h 2 min
Bit rate : 60.8 kb/s
Count of elements : 3819
Stream size : 53.4 MB (0%)
Title : Commentary with George Lucas, Carrie Fisher, Ben Burtt, and Dennis Muren
Language : Italian
Default : No
Forced : No

Text #8
ID : 10
Format : PGS
Muxing mode : zlib
Codec ID : S_HDMV/PGS
Codec ID/Info : Picture based subtitle format used on BDs/HD-DVDs
Duration : 2 h 4 min
Bit rate : 66.9 kb/s
Count of elements : 4029
Stream size : 59.4 MB (0%)
Title : Commentary with Cast and Crew
Language : Italian
Default : No
Forced : No

Text #9
ID : 11
Format : PGS
Muxing mode : zlib
Codec ID : S_HDMV/PGS
Codec ID/Info : Picture based subtitle format used on BDs/HD-DVDs
Duration : 1 h 58 min
Bit rate : 43.7 kb/s
Count of elements : 2754
Stream size : 36.9 MB (0%)
Title : German
Language : German
Default : No
Forced : No

Text #10
ID : 12
Format : PGS
Muxing mode : zlib
Codec ID : S_HDMV/PGS
Codec ID/Info : Picture based subtitle format used on BDs/HD-DVDs
Duration : 2 h 2 min
Bit rate : 68.2 kb/s
Count of elements : 3719
Stream size : 59.9 MB (0%)
Title : Commentary with George Lucas, Carrie Fisher, Ben Burtt, and Dennis Muren
Language : German
Default : No
Forced : No

Text #11
ID : 13
Format : PGS
Muxing mode : zlib
Codec ID : S_HDMV/PGS
Codec ID/Info : Picture based subtitle format used on BDs/HD-DVDs
Duration : 2 h 4 min
Bit rate : 69.7 kb/s
Count of elements : 3943
Stream size : 61.9 MB (0%)
Title : Commentary with Cast and Crew
Language : German
Default : No
Forced : No

Text #12
ID : 14
Format : PGS
Muxing mode : zlib
Codec ID : S_HDMV/PGS
Codec ID/Info : Picture based subtitle format used on BDs/HD-DVDs
Duration : 1 h 58 min
Bit rate : 26.3 kb/s
Count of elements : 2062
Stream size : 22.2 MB (0%)
Title : Swedish
Language : Swedish
Default : No
Forced : No

Text #13
ID : 15
Format : PGS
Muxing mode : zlib
Codec ID : S_HDMV/PGS
Codec ID/Info : Picture based subtitle format used on BDs/HD-DVDs
Duration : 1 h 58 min
Bit rate : 24.2 kb/s
Count of elements : 2054
Stream size : 20.4 MB (0%)
Title : Norwegian
Language : Norwegian
Default : No
Forced : No

Text #14
ID : 16
Format : PGS
Muxing mode : zlib
Codec ID : S_HDMV/PGS
Codec ID/Info : Picture based subtitle format used on BDs/HD-DVDs
Duration : 1 h 58 min
Bit rate : 27.5 kb/s
Count of elements : 2054
Stream size : 23.2 MB (0%)
Title : Danish
Language : Danish
Default : No
Forced : No

Text #15
ID : 17
Format : PGS
Muxing mode : zlib
Codec ID : S_HDMV/PGS
Codec ID/Info : Picture based subtitle format used on BDs/HD-DVDs
Duration : 1 h 58 min
Bit rate : 27.3 kb/s
Count of elements : 2078
Stream size : 23.0 MB (0%)
Title : Finnish
Language : Finnish
Default : No
Forced : No

Menu
00:00:00.000 : en:Chapter 01
00:00:21.688 : en:Chapter 02
00:01:54.072 : en:Chapter 03
00:04:53.460 : en:Chapter 04
00:07:28.948 : en:Chapter 05
00:08:55.535 : en:Chapter 06
00:11:22.056 : en:Chapter 07
00:15:40.898 : en:Chapter 08
00:19:40.846 : en:Chapter 09
00:23:33.871 : en:Chapter 10
00:25:33.282 : en:Chapter 11
00:27:46.164 : en:Chapter 12
00:29:13.377 : en:Chapter 13
00:32:34.744 : en:Chapter 14
00:34:53.675 : en:Chapter 15
00:36:54.879 : en:Chapter 16
00:39:06.302 : en:Chapter 17
00:41:42.959 : en:Chapter 18
00:42:32.216 : en:Chapter 19
00:44:52.398 : en:Chapter 20
00:47:53.287 : en:Chapter 21
00:49:58.662 : en:Chapter 22
00:51:14.571 : en:Chapter 23
00:52:41.700 : en:Chapter 24
00:54:13.250 : en:Chapter 25
00:57:00.834 : en:Chapter 26
00:59:13.758 : en:Chapter 27
01:03:11.746 : en:Chapter 28
01:06:17.390 : en:Chapter 29
01:08:22.890 : en:Chapter 30
01:12:33.266 : en:Chapter 31
01:14:13.574 : en:Chapter 32
01:17:14.630 : en:Chapter 33
01:19:10.245 : en:Chapter 34
01:21:30.302 : en:Chapter 35
01:25:01.138 : en:Chapter 36
01:27:03.009 : en:Chapter 37
01:29:57.100 : en:Chapter 38
01:33:49.374 : en:Chapter 39
01:36:40.795 : en:Chapter 40
01:38:07.673 : en:Chapter 41
01:39:38.431 : en:Chapter 42
01:41:25.955 : en:Chapter 43
01:42:38.319 : en:Chapter 44
01:45:03.547 : en:Chapter 45
01:49:43.702 : en:Chapter 46
01:55:19.830 : en:Chapter 47
01:57:48.395 : en:Chapter 48
01:58:29.436 : en:Chapter 49
02:00:15.416 : en:Chapter 50



BRRip 720p Screenshots

Star Wars: Episode IV - A New Hope (1977) [Remastered]

Star Wars: Episode IV - A New Hope (1977) [Remastered]

Star Wars: Episode IV - A New Hope (1977) [Remastered]


BRRip 1080p Screenshots

Star Wars: Episode IV - A New Hope (1977) [Remastered]

Star Wars: Episode IV - A New Hope (1977) [Remastered]

Star Wars: Episode IV - A New Hope (1977) [Remastered]


BDRip 720p Screenshots

Star Wars: Episode IV - A New Hope (1977) [Remastered]

Star Wars: Episode IV - A New Hope (1977) [Remastered]

Star Wars: Episode IV - A New Hope (1977) [Remastered]


BDRip 1080p Screenshots

Star Wars: Episode IV - A New Hope (1977) [Remastered]

Star Wars: Episode IV - A New Hope (1977) [Remastered]

Star Wars: Episode IV - A New Hope (1977) [Remastered]


Come Visit My Blog (•‿•)