Tags
Language
Tags

Star Wars: Episode VI - Return of the Jedi (1983) [Remastered]

Posted By: Without
1080p (FullHD) / BDRip IMDb
Star Wars: Episode VI - Return of the Jedi (1983) [Remastered]

Star Wars: Episode VI - Return of the Jedi (1983)
BRRip 720p | MP4 | 2 h 14 min | 1.63 GB | 1280x536 | AVC@1500 kb/s | English AAC@224 kb/s, 2 ch
BRRip 1080p | MP4 | 2 h 14 min | 2.57 GB | 1920x804 | AVC@2500 kb/s | English AAC@224 kb/s, 2 ch
BDRip 720p | MKV | 2 h 14 min | 4.60 GB | 1280x536 | AVC@3828 kb/s
English AC3@640 kb/s, 6 ch | English AAC@128 kb/s, 2 ch (Commentary)
BDRip 1080p | MKV | 2 h 14 min | 14.3 GB | 1920x804 | AVC@10.7 Mb/s
English DTS-HD MA@4110 kb/s, 8 ch | English AAC@128 kb/s, 2 ch (Commentary)
Subs: English, Italiano, German, Svenska, Norsk, Dansk, Suomi
Genre: Action | Adventure | Fantasy | Sci-Fi

After a daring mission to rescue Han Solo from Jabba the Hutt, the Rebels dispatch to Endor to destroy the second Death Star. Meanwhile, Luke struggles to help Darth Vader back from the dark side without falling into the Emperor's trap.

IMDB - Top Rated Movies #84 | Nominated for 4 Oscars. Another 22 wins & 16 nominations.


General
Star.Wars.Episode.VI.Return.of.the.Jedi.1983.REMASTERED.720p.BluRay.H264.AAC.mp4
Format : MPEG-4
Format profile : Base Media
Codec ID : isom (isom/iso2/avc1/mp41)
File size : 1.63 GB
Duration : 2 h 14 min
Overall bit rate : 1731 kb/s
Encoded date : UTC 2020-05-03 09:57:27
Tagged date : UTC 2020-05-03 09:57:27
Writing application : Lavf58.20.100

Video
ID : 1
Format : AVC
Format/Info : Advanced Video Codec
Format profile : High@L4.1
Format settings, CABAC : Yes
Format settings, ReFrames : 4 frames
Codec ID : avc1
Codec ID/Info : Advanced Video Coding
Duration : 2 h 14 min
Bit rate : 1500 kb/s
Width : 1280 pixels
Height : 536 pixels
Display aspect ratio : 2.40:1
Frame rate mode : Constant
Frame rate : 23.976 (23976/1000) FPS
Color space : YUV
Chroma subsampling : 4:2:0
Bit depth : 8 bits
Scan type : Progressive
Bits/(Pixel*Frame) : 0.091
Stream size : 1.41 GB (87%)
Writing library : x264 core 152 r2851M ba24899
Encoding settings : cabac=1 / ref=4 / deblock=1:-1:-1 / analyse=0x3:0x113 / me=umh / subme=9 / psy=1 / psy_rd=1.00:0.15 / mixed_ref=1 / me_range=24 / chroma_me=1 / trellis=2 / 8x8dct=1 / cqm=0 / deadzone=21,11 / fast_pskip=1 / chroma_qp_offset=-3 / threads=16 / lookahead_threads=4 / sliced_threads=0 / nr=0 / decimate=1 / interlaced=0 / bluray_compat=0 / constrained_intra=0 / bframes=3 / b_pyramid=2 / b_adapt=2 / b_bias=0 / direct=3 / weightb=1 / open_gop=0 / weightp=2 / keyint=250 / keyint_min=25 / scenecut=40 / intra_refresh=0 / rc_lookahead=50 / rc=2pass / mbtree=1 / bitrate=1500 / ratetol=1.0 / qcomp=0.60 / qpmin=0 / qpmax=69 / qpstep=4 / cplxblur=20.0 / qblur=0.5 / vbv_maxrate=31250 / vbv_bufsize=31250 / nal_hrd=none / filler=0 / ip_ratio=1.40 / aq=3:1.00
Encoded date : UTC 2020-05-03 09:57:27
Tagged date : UTC 2020-05-03 09:57:27

Audio
ID : 2
Format : AAC
Format/Info : Advanced Audio Codec
Format profile : LC
Codec ID : 40
Duration : 2 h 14 min
Bit rate mode : Constant
Bit rate : 224 kb/s
Channel(s) : 2 channels
Channel(s)_Original : 6 channels
Channel positions : Front: L C R, Side: L R, LFE
Sampling rate : 48.0 kHz
Frame rate : 46.875 FPS (1024 spf)
Compression mode : Lossy
Stream size : 216 MB (13%)
Language : English
Default : Yes
Alternate group : 1
Encoded date : UTC 2020-05-03 09:57:27
Tagged date : UTC 2020-05-03 09:57:27


General
Star.Wars.Episode.VI.Return.of.the.Jedi.1983.REMASTERED.1080p.BluRay.H264.AAC.mp4
Format : MPEG-4
Format profile : Base Media
Codec ID : isom (isom/iso2/avc1/mp41)
File size : 2.57 GB
Duration : 2 h 14 min
Overall bit rate : 2730 kb/s
Encoded date : UTC 2020-05-03 11:34:41
Tagged date : UTC 2020-05-03 11:34:41
Writing application : Lavf58.20.100

Video
ID : 1
Format : AVC
Format/Info : Advanced Video Codec
Format profile : High@L4.1
Format settings, CABAC : Yes
Format settings, ReFrames : 4 frames
Codec ID : avc1
Codec ID/Info : Advanced Video Coding
Duration : 2 h 14 min
Bit rate : 2500 kb/s
Width : 1920 pixels
Height : 804 pixels
Display aspect ratio : 2.40:1
Frame rate mode : Constant
Frame rate : 23.976 (23976/1000) FPS
Color space : YUV
Chroma subsampling : 4:2:0
Bit depth : 8 bits
Scan type : Progressive
Bits/(Pixel*Frame) : 0.068
Stream size : 2.35 GB (92%)
Writing library : x264 core 152 r2851M ba24899
Encoding settings : cabac=1 / ref=4 / deblock=1:-1:-1 / analyse=0x3:0x113 / me=umh / subme=9 / psy=1 / psy_rd=1.00:0.15 / mixed_ref=1 / me_range=24 / chroma_me=1 / trellis=2 / 8x8dct=1 / cqm=0 / deadzone=21,11 / fast_pskip=1 / chroma_qp_offset=-3 / threads=16 / lookahead_threads=4 / sliced_threads=0 / nr=0 / decimate=1 / interlaced=0 / bluray_compat=0 / constrained_intra=0 / bframes=3 / b_pyramid=2 / b_adapt=2 / b_bias=0 / direct=3 / weightb=1 / open_gop=0 / weightp=2 / keyint=250 / keyint_min=25 / scenecut=40 / intra_refresh=0 / rc_lookahead=50 / rc=2pass / mbtree=1 / bitrate=2500 / ratetol=1.0 / qcomp=0.60 / qpmin=0 / qpmax=69 / qpstep=4 / cplxblur=20.0 / qblur=0.5 / vbv_maxrate=31250 / vbv_bufsize=31250 / nal_hrd=none / filler=0 / ip_ratio=1.40 / aq=3:1.00
Encoded date : UTC 2020-05-03 11:34:41
Tagged date : UTC 2020-05-03 11:34:41

Audio
ID : 2
Format : AAC
Format/Info : Advanced Audio Codec
Format profile : LC
Codec ID : 40
Duration : 2 h 14 min
Bit rate mode : Constant
Bit rate : 224 kb/s
Channel(s) : 2 channels
Channel(s)_Original : 6 channels
Channel positions : Front: L C R, Side: L R, LFE
Sampling rate : 48.0 kHz
Frame rate : 46.875 FPS (1024 spf)
Compression mode : Lossy
Stream size : 216 MB (8%)
Language : English
Default : Yes
Alternate group : 1
Encoded date : UTC 2020-05-03 11:34:41
Tagged date : UTC 2020-05-03 11:34:41


General
Star.Wars.Episode.VI.Return.of.the.Jedi.1983.REMASTERED.720p.BluRay.X264-AMIABLE.mkv
Format : Matroska
Format version : Version 4 / Version 2
File size : 4.60 GB
Duration : 2 h 14 min
Overall bit rate : 4881 kb/s
Writing application : mkvmerge v44.0.0 ('Domino') 64-bit
Writing library : libebml v1.3.10 + libmatroska v1.5.2

Video
ID : 1
Format : AVC
Format/Info : Advanced Video Codec
Format profile : High@L4.1
Format settings, CABAC : Yes
Format settings, ReFrames : 12 frames
Codec ID : V_MPEG4/ISO/AVC
Duration : 2 h 14 min
Bit rate : 3828 kb/s
Width : 1280 pixels
Height : 536 pixels
Display aspect ratio : 2.40:1
Frame rate mode : Constant
Frame rate : 23.976 (24000/1001) FPS
Color space : YUV
Chroma subsampling : 4:2:0
Bit depth : 8 bits
Scan type : Progressive
Bits/(Pixel*Frame) : 0.233
Stream size : 3.60 GB (78%)
Writing library : x264 core 159 r2991 1771b55
Encoding settings : cabac=1 / ref=12 / deblock=1:-3:-3 / analyse=0x3:0x133 / me=umh / subme=10 / psy=1 / psy_rd=1.00:0.00 / mixed_ref=1 / me_range=32 / chroma_me=1 / trellis=2 / 8x8dct=1 / cqm=0 / deadzone=21,11 / fast_pskip=0 / chroma_qp_offset=-2 / threads=17 / lookahead_threads=4 / sliced_threads=0 / nr=0 / decimate=0 / interlaced=0 / bluray_compat=0 / constrained_intra=0 / bframes=10 / b_pyramid=2 / b_adapt=2 / b_bias=0 / direct=3 / weightb=1 / open_gop=0 / weightp=2 / keyint=240 / keyint_min=24 / scenecut=40 / intra_refresh=0 / rc=crf / mbtree=0 / crf=17.0 / qcomp=0.65 / qpmin=0 / qpmax=69 / qpstep=4 / ip_ratio=1.30 / pb_ratio=1.20 / aq=3:0.70
Default : Yes
Forced : No
Color range : Limited
Matrix coefficients : BT.709

Audio #1
ID : 2
Format : AC-3
Format/Info : Audio Coding 3
Mode extension : CM (complete main)
Format settings, Endianness : Big
Codec ID : A_AC3
Duration : 2 h 14 min
Bit rate mode : Constant
Bit rate : 640 kb/s
Channel(s) : 6 channels
Channel positions : Front: L C R, Side: L R, LFE
Sampling rate : 48.0 kHz
Frame rate : 31.250 FPS (1536 spf)
Bit depth : 16 bits
Compression mode : Lossy
Stream size : 617 MB (13%)
Language : English
Default : Yes
Forced : No

Audio #2
ID : 18
Format : AAC
Format/Info : Advanced Audio Codec
Format profile : LC
Codec ID : A_AAC
Duration : 2 h 14 min
Bit rate : 128 kb/s
Channel(s) : 2 channels
Channel positions : Front: L R
Sampling rate : 48.0 kHz
Frame rate : 46.875 FPS (1024 spf)
Compression mode : Lossy
Delay relative to video : 9 ms
Stream size : 124 MB (3%)
Title : Commentary with George Lucas, Carrie Fisher, Ben Burtt, and Dennis Muren
Language : English
Default : No
Forced : No

Audio #3
ID : 19
Format : AAC
Format/Info : Advanced Audio Codec
Format profile : LC
Codec ID : A_AAC
Duration : 2 h 14 min
Bit rate : 121 kb/s
Channel(s) : 2 channels
Channel positions : Front: L R
Sampling rate : 48.0 kHz
Frame rate : 46.875 FPS (1024 spf)
Compression mode : Lossy
Delay relative to video : 9 ms
Stream size : 117 MB (2%)
Title : Commentary with Cast and Crew
Language : English
Default : No
Forced : No

Text #1
ID : 3
Format : UTF-8
Codec ID : S_TEXT/UTF8
Codec ID/Info : UTF-8 Plain Text
Duration : 2 h 3 min
Bit rate : 33 b/s
Count of elements : 1065
Stream size : 30.5 KiB (0%)
Title : Stripped SRT
Language : English
Default : No
Forced : No

Text #2
ID : 4
Format : UTF-8
Codec ID : S_TEXT/UTF8
Codec ID/Info : UTF-8 Plain Text
Duration : 2 h 6 min
Bit rate : 38 b/s
Count of elements : 1317
Stream size : 35.3 KiB (0%)
Title : SDH SRT
Language : English
Default : No
Forced : No

Text #3
ID : 5
Format : PGS
Muxing mode : zlib
Codec ID : S_HDMV/PGS
Codec ID/Info : Picture based subtitle format used on BDs/HD-DVDs
Duration : 2 h 6 min
Bit rate : 25.6 kb/s
Count of elements : 2634
Stream size : 23.1 MB (0%)
Title : English SDH
Language : English
Default : No
Forced : No

Text #4
ID : 6
Format : PGS
Muxing mode : zlib
Codec ID : S_HDMV/PGS
Codec ID/Info : Picture based subtitle format used on BDs/HD-DVDs
Duration : 2 h 7 min
Bit rate : 71.8 kb/s
Count of elements : 4100
Stream size : 65.6 MB (1%)
Title : Commentary with George Lucas, Carrie Fisher, Ben Burtt, and Dennis Muren
Language : English
Default : No
Forced : No

Text #5
ID : 7
Format : PGS
Muxing mode : zlib
Codec ID : S_HDMV/PGS
Codec ID/Info : Picture based subtitle format used on BDs/HD-DVDs
Duration : 2 h 10 min
Bit rate : 66.8 kb/s
Count of elements : 4058
Stream size : 62.1 MB (1%)
Title : Commentary with Cast and Crew
Language : English
Default : No
Forced : No

Text #6
ID : 8
Format : PGS
Muxing mode : zlib
Codec ID : S_HDMV/PGS
Codec ID/Info : Picture based subtitle format used on BDs/HD-DVDs
Duration : 2 h 5 min
Bit rate : 21.9 kb/s
Count of elements : 2038
Stream size : 19.7 MB (0%)
Title : Italian
Language : Italian
Default : No
Forced : No

Text #7
ID : 9
Format : PGS
Muxing mode : zlib
Codec ID : S_HDMV/PGS
Codec ID/Info : Picture based subtitle format used on BDs/HD-DVDs
Duration : 2 h 7 min
Bit rate : 68.8 kb/s
Count of elements : 4496
Stream size : 62.9 MB (1%)
Title : Commentary with George Lucas, Carrie Fisher, Ben Burtt, and Dennis Muren
Language : Italian
Default : No
Forced : No

Text #8
ID : 10
Format : PGS
Muxing mode : zlib
Codec ID : S_HDMV/PGS
Codec ID/Info : Picture based subtitle format used on BDs/HD-DVDs
Duration : 2 h 10 min
Bit rate : 64.7 kb/s
Count of elements : 4586
Stream size : 60.2 MB (1%)
Title : Commentary with Cast and Crew
Language : Italian
Default : No
Forced : No

Text #9
ID : 11
Format : PGS
Muxing mode : zlib
Codec ID : S_HDMV/PGS
Codec ID/Info : Picture based subtitle format used on BDs/HD-DVDs
Duration : 2 h 5 min
Bit rate : 26.8 kb/s
Count of elements : 2110
Stream size : 24.0 MB (1%)
Title : German
Language : German
Default : No
Forced : No

Text #10
ID : 12
Format : PGS
Muxing mode : zlib
Codec ID : S_HDMV/PGS
Codec ID/Info : Picture based subtitle format used on BDs/HD-DVDs
Duration : 2 h 7 min
Bit rate : 68.4 kb/s
Count of elements : 4018
Stream size : 62.5 MB (1%)
Title : Commentary with George Lucas, Carrie Fisher, Ben Burtt, and Dennis Muren
Language : German
Default : No
Forced : No

Text #11
ID : 13
Format : PGS
Muxing mode : zlib
Codec ID : S_HDMV/PGS
Codec ID/Info : Picture based subtitle format used on BDs/HD-DVDs
Duration : 2 h 10 min
Bit rate : 64.5 kb/s
Count of elements : 4058
Stream size : 60.0 MB (1%)
Title : Commentary with Cast and Crew
Language : German
Default : No
Forced : No

Text #12
ID : 14
Format : PGS
Muxing mode : zlib
Codec ID : S_HDMV/PGS
Codec ID/Info : Picture based subtitle format used on BDs/HD-DVDs
Duration : 2 h 5 min
Bit rate : 19.1 kb/s
Count of elements : 1910
Stream size : 17.1 MB (0%)
Title : Swedish
Language : Swedish
Default : No
Forced : No

Text #13
ID : 15
Format : PGS
Muxing mode : zlib
Codec ID : S_HDMV/PGS
Codec ID/Info : Picture based subtitle format used on BDs/HD-DVDs
Duration : 2 h 5 min
Bit rate : 17.5 kb/s
Count of elements : 1924
Stream size : 15.8 MB (0%)
Title : Norwegian
Language : Norwegian
Default : No
Forced : No

Text #14
ID : 16
Format : PGS
Muxing mode : zlib
Codec ID : S_HDMV/PGS
Codec ID/Info : Picture based subtitle format used on BDs/HD-DVDs
Duration : 2 h 5 min
Bit rate : 20.7 kb/s
Count of elements : 1920
Stream size : 18.6 MB (0%)
Title : Danish
Language : Danish
Default : No
Forced : No

Text #15
ID : 17
Format : PGS
Muxing mode : zlib
Codec ID : S_HDMV/PGS
Codec ID/Info : Picture based subtitle format used on BDs/HD-DVDs
Duration : 2 h 5 min
Bit rate : 17.4 kb/s
Count of elements : 1646
Stream size : 15.6 MB (0%)
Title : Finnish
Language : Finnish
Default : No
Forced : No

Menu
00:00:00.000 : en:Chapter 01
00:00:21.855 : en:Chapter 02
00:01:55.782 : en:Chapter 03
00:04:59.132 : en:Chapter 04
00:08:11.574 : en:Chapter 05
00:12:22.575 : en:Chapter 06
00:14:22.695 : en:Chapter 07
00:17:36.681 : en:Chapter 08
00:22:10.704 : en:Chapter 09
00:25:09.007 : en:Chapter 10
00:29:38.026 : en:Chapter 11
00:31:29.679 : en:Chapter 12
00:37:45.138 : en:Chapter 13
00:39:32.912 : en:Chapter 14
00:45:18.090 : en:Chapter 15
00:48:24.068 : en:Chapter 16
00:51:36.677 : en:Chapter 17
00:53:33.335 : en:Chapter 18
00:54:25.762 : en:Chapter 19
00:56:55.912 : en:Chapter 20
00:58:44.479 : en:Chapter 21
01:02:42.383 : en:Chapter 22
01:06:19.934 : en:Chapter 23
01:07:48.147 : en:Chapter 24
01:12:01.776 : en:Chapter 25
01:15:53.340 : en:Chapter 26
01:18:15.482 : en:Chapter 27
01:22:31.071 : en:Chapter 28
01:26:07.537 : en:Chapter 29
01:26:52.749 : en:Chapter 30
01:27:51.558 : en:Chapter 31
01:30:05.191 : en:Chapter 32
01:33:19.802 : en:Chapter 33
01:36:42.088 : en:Chapter 34
01:40:25.853 : en:Chapter 35
01:42:23.846 : en:Chapter 36
01:44:28.470 : en:Chapter 37
01:45:27.613 : en:Chapter 38
01:48:43.100 : en:Chapter 39
01:50:41.301 : en:Chapter 40
01:51:37.774 : en:Chapter 41
01:54:37.787 : en:Chapter 42
01:55:08.526 : en:Chapter 43
01:55:58.159 : en:Chapter 44
01:57:40.845 : en:Chapter 45
01:59:34.834 : en:Chapter 46
02:01:59.520 : en:Chapter 47
02:04:51.234 : en:Chapter 48
02:05:28.104 : en:Chapter 49
02:07:56.711 : en:Chapter 50


General
Star.Wars.Episode.VI.Return.of.the.Jedi.1983.REMASTERED.1080p.BluRay.X264-AMIABLE.mkv
Format : Matroska
Format version : Version 4 / Version 2
File size : 14.3 GB
Duration : 2 h 14 min
Overall bit rate : 15.2 Mb/s
Writing application : mkvmerge v44.0.0 ('Domino') 64-bit
Writing library : libebml v1.3.10 + libmatroska v1.5.2

Video
ID : 1
Format : AVC
Format/Info : Advanced Video Codec
Format profile : High@L4.1
Format settings, CABAC : Yes
Format settings, ReFrames : 5 frames
Codec ID : V_MPEG4/ISO/AVC
Duration : 2 h 14 min
Bit rate : 10.7 Mb/s
Width : 1920 pixels
Height : 804 pixels
Display aspect ratio : 2.40:1
Frame rate mode : Constant
Frame rate : 23.976 (24000/1001) FPS
Color space : YUV
Chroma subsampling : 4:2:0
Bit depth : 8 bits
Scan type : Progressive
Bits/(Pixel*Frame) : 0.288
Stream size : 10.0 GB (70%)
Writing library : x264 core 159 r2991 1771b55
Encoding settings : cabac=1 / ref=5 / deblock=1:-3:-3 / analyse=0x3:0x133 / me=umh / subme=10 / psy=1 / psy_rd=1.00:0.00 / mixed_ref=1 / me_range=48 / chroma_me=1 / trellis=2 / 8x8dct=1 / cqm=0 / deadzone=21,11 / fast_pskip=0 / chroma_qp_offset=-2 / threads=25 / lookahead_threads=6 / sliced_threads=0 / nr=0 / decimate=0 / interlaced=0 / bluray_compat=0 / constrained_intra=0 / bframes=10 / b_pyramid=2 / b_adapt=2 / b_bias=0 / direct=3 / weightb=1 / open_gop=0 / weightp=2 / keyint=240 / keyint_min=24 / scenecut=40 / intra_refresh=0 / rc=crf / mbtree=0 / crf=17.0 / qcomp=0.65 / qpmin=0 / qpmax=69 / qpstep=4 / ip_ratio=1.30 / pb_ratio=1.20 / aq=3:0.70
Default : Yes
Forced : No
Color range : Limited
Matrix coefficients : BT.709

Audio #1
ID : 2
Format : DTS
Format/Info : Digital Theater Systems
Format profile : MA / Core
Mode : 16
Format settings, Endianness : Big
Codec ID : A_DTS
Duration : 2 h 14 min
Bit rate mode : Variable / Constant
Bit rate : 4110 kb/s / 1509 kb/s
Channel(s) : 8 channels / 6 channels
Channel positions : Front: L C R, Side: L R, Back: L R, LFE / Front: L C R, Side: L R, LFE
Sampling rate : 48.0 kHz
Frame rate : 93.750 FPS (512 spf)
Bit depth : 24 bits
Compression mode : Lossless / Lossy
Stream size : 3.87 GB (27%)
Language : English
Default : Yes
Forced : No

Audio #2
ID : 18
Format : AAC
Format/Info : Advanced Audio Codec
Format profile : LC
Codec ID : A_AAC
Duration : 2 h 14 min
Bit rate : 128 kb/s
Channel(s) : 2 channels
Channel positions : Front: L R
Sampling rate : 48.0 kHz
Frame rate : 46.875 FPS (1024 spf)
Compression mode : Lossy
Delay relative to video : 9 ms
Stream size : 124 MB (1%)
Title : Commentary with George Lucas, Carrie Fisher, Ben Burtt, and Dennis Muren
Language : English
Default : No
Forced : No

Audio #3
ID : 19
Format : AAC
Format/Info : Advanced Audio Codec
Format profile : LC
Codec ID : A_AAC
Duration : 2 h 14 min
Bit rate : 121 kb/s
Channel(s) : 2 channels
Channel positions : Front: L R
Sampling rate : 48.0 kHz
Frame rate : 46.875 FPS (1024 spf)
Compression mode : Lossy
Delay relative to video : 9 ms
Stream size : 117 MB (1%)
Title : Commentary with Cast and Crew
Language : English
Default : No
Forced : No

Text #1
ID : 3
Format : UTF-8
Codec ID : S_TEXT/UTF8
Codec ID/Info : UTF-8 Plain Text
Duration : 2 h 3 min
Bit rate : 33 b/s
Count of elements : 1065
Stream size : 30.5 KiB (0%)
Title : Stripped SRT
Language : English
Default : No
Forced : No

Text #2
ID : 4
Format : UTF-8
Codec ID : S_TEXT/UTF8
Codec ID/Info : UTF-8 Plain Text
Duration : 2 h 6 min
Bit rate : 38 b/s
Count of elements : 1317
Stream size : 35.3 KiB (0%)
Title : SDH SRT
Language : English
Default : No
Forced : No

Text #3
ID : 5
Format : PGS
Muxing mode : zlib
Codec ID : S_HDMV/PGS
Codec ID/Info : Picture based subtitle format used on BDs/HD-DVDs
Duration : 2 h 6 min
Bit rate : 25.6 kb/s
Count of elements : 2634
Stream size : 23.1 MB (0%)
Title : English SDH
Language : English
Default : No
Forced : No

Text #4
ID : 6
Format : PGS
Muxing mode : zlib
Codec ID : S_HDMV/PGS
Codec ID/Info : Picture based subtitle format used on BDs/HD-DVDs
Duration : 2 h 7 min
Bit rate : 71.8 kb/s
Count of elements : 4100
Stream size : 65.6 MB (0%)
Title : Commentary with George Lucas, Carrie Fisher, Ben Burtt, and Dennis Muren
Language : English
Default : No
Forced : No

Text #5
ID : 7
Format : PGS
Muxing mode : zlib
Codec ID : S_HDMV/PGS
Codec ID/Info : Picture based subtitle format used on BDs/HD-DVDs
Duration : 2 h 10 min
Bit rate : 66.8 kb/s
Count of elements : 4058
Stream size : 62.1 MB (0%)
Title : Commentary with Cast and Crew
Language : English
Default : No
Forced : No

Text #6
ID : 8
Format : PGS
Muxing mode : zlib
Codec ID : S_HDMV/PGS
Codec ID/Info : Picture based subtitle format used on BDs/HD-DVDs
Duration : 2 h 5 min
Bit rate : 21.9 kb/s
Count of elements : 2038
Stream size : 19.7 MB (0%)
Title : Italian
Language : Italian
Default : No
Forced : No

Text #7
ID : 9
Format : PGS
Muxing mode : zlib
Codec ID : S_HDMV/PGS
Codec ID/Info : Picture based subtitle format used on BDs/HD-DVDs
Duration : 2 h 7 min
Bit rate : 68.8 kb/s
Count of elements : 4496
Stream size : 62.9 MB (0%)
Title : Commentary with George Lucas, Carrie Fisher, Ben Burtt, and Dennis Muren
Language : Italian
Default : No
Forced : No

Text #8
ID : 10
Format : PGS
Muxing mode : zlib
Codec ID : S_HDMV/PGS
Codec ID/Info : Picture based subtitle format used on BDs/HD-DVDs
Duration : 2 h 10 min
Bit rate : 64.7 kb/s
Count of elements : 4586
Stream size : 60.2 MB (0%)
Title : Commentary with Cast and Crew
Language : Italian
Default : No
Forced : No

Text #9
ID : 11
Format : PGS
Muxing mode : zlib
Codec ID : S_HDMV/PGS
Codec ID/Info : Picture based subtitle format used on BDs/HD-DVDs
Duration : 2 h 5 min
Bit rate : 26.8 kb/s
Count of elements : 2110
Stream size : 24.0 MB (0%)
Title : German
Language : German
Default : No
Forced : No

Text #10
ID : 12
Format : PGS
Muxing mode : zlib
Codec ID : S_HDMV/PGS
Codec ID/Info : Picture based subtitle format used on BDs/HD-DVDs
Duration : 2 h 7 min
Bit rate : 68.4 kb/s
Count of elements : 4018
Stream size : 62.5 MB (0%)
Title : Commentary with George Lucas, Carrie Fisher, Ben Burtt, and Dennis Muren
Language : German
Default : No
Forced : No

Text #11
ID : 13
Format : PGS
Muxing mode : zlib
Codec ID : S_HDMV/PGS
Codec ID/Info : Picture based subtitle format used on BDs/HD-DVDs
Duration : 2 h 10 min
Bit rate : 64.5 kb/s
Count of elements : 4058
Stream size : 60.0 MB (0%)
Title : Commentary with Cast and Crew
Language : German
Default : No
Forced : No

Text #12
ID : 14
Format : PGS
Muxing mode : zlib
Codec ID : S_HDMV/PGS
Codec ID/Info : Picture based subtitle format used on BDs/HD-DVDs
Duration : 2 h 5 min
Bit rate : 19.1 kb/s
Count of elements : 1910
Stream size : 17.1 MB (0%)
Title : Swedish
Language : Swedish
Default : No
Forced : No

Text #13
ID : 15
Format : PGS
Muxing mode : zlib
Codec ID : S_HDMV/PGS
Codec ID/Info : Picture based subtitle format used on BDs/HD-DVDs
Duration : 2 h 5 min
Bit rate : 17.5 kb/s
Count of elements : 1924
Stream size : 15.8 MB (0%)
Title : Norwegian
Language : Norwegian
Default : No
Forced : No

Text #14
ID : 16
Format : PGS
Muxing mode : zlib
Codec ID : S_HDMV/PGS
Codec ID/Info : Picture based subtitle format used on BDs/HD-DVDs
Duration : 2 h 5 min
Bit rate : 20.7 kb/s
Count of elements : 1920
Stream size : 18.6 MB (0%)
Title : Danish
Language : Danish
Default : No
Forced : No

Text #15
ID : 17
Format : PGS
Muxing mode : zlib
Codec ID : S_HDMV/PGS
Codec ID/Info : Picture based subtitle format used on BDs/HD-DVDs
Duration : 2 h 5 min
Bit rate : 17.4 kb/s
Count of elements : 1646
Stream size : 15.6 MB (0%)
Title : Finnish
Language : Finnish
Default : No
Forced : No

Menu
00:00:00.000 : en:Chapter 01
00:00:21.855 : en:Chapter 02
00:01:55.782 : en:Chapter 03
00:04:59.132 : en:Chapter 04
00:08:11.574 : en:Chapter 05
00:12:22.575 : en:Chapter 06
00:14:22.695 : en:Chapter 07
00:17:36.681 : en:Chapter 08
00:22:10.704 : en:Chapter 09
00:25:09.007 : en:Chapter 10
00:29:38.026 : en:Chapter 11
00:31:29.679 : en:Chapter 12
00:37:45.138 : en:Chapter 13
00:39:32.912 : en:Chapter 14
00:45:18.090 : en:Chapter 15
00:48:24.068 : en:Chapter 16
00:51:36.677 : en:Chapter 17
00:53:33.335 : en:Chapter 18
00:54:25.762 : en:Chapter 19
00:56:55.912 : en:Chapter 20
00:58:44.479 : en:Chapter 21
01:02:42.383 : en:Chapter 22
01:06:19.934 : en:Chapter 23
01:07:48.147 : en:Chapter 24
01:12:01.776 : en:Chapter 25
01:15:53.340 : en:Chapter 26
01:18:15.482 : en:Chapter 27
01:22:31.071 : en:Chapter 28
01:26:07.537 : en:Chapter 29
01:26:52.749 : en:Chapter 30
01:27:51.558 : en:Chapter 31
01:30:05.191 : en:Chapter 32
01:33:19.802 : en:Chapter 33
01:36:42.088 : en:Chapter 34
01:40:25.853 : en:Chapter 35
01:42:23.846 : en:Chapter 36
01:44:28.470 : en:Chapter 37
01:45:27.613 : en:Chapter 38
01:48:43.100 : en:Chapter 39
01:50:41.301 : en:Chapter 40
01:51:37.774 : en:Chapter 41
01:54:37.787 : en:Chapter 42
01:55:08.526 : en:Chapter 43
01:55:58.159 : en:Chapter 44
01:57:40.845 : en:Chapter 45
01:59:34.834 : en:Chapter 46
02:01:59.520 : en:Chapter 47
02:04:51.234 : en:Chapter 48
02:05:28.104 : en:Chapter 49
02:07:56.711 : en:Chapter 50



BRRip 720p Screenshots

Star Wars: Episode VI - Return of the Jedi (1983) [Remastered]

Star Wars: Episode VI - Return of the Jedi (1983) [Remastered]

Star Wars: Episode VI - Return of the Jedi (1983) [Remastered]


BRRip 1080p Screenshots

Star Wars: Episode VI - Return of the Jedi (1983) [Remastered]

Star Wars: Episode VI - Return of the Jedi (1983) [Remastered]

Star Wars: Episode VI - Return of the Jedi (1983) [Remastered]


BDRip 720p Screenshots

Star Wars: Episode VI - Return of the Jedi (1983) [Remastered]

Star Wars: Episode VI - Return of the Jedi (1983) [Remastered]

Star Wars: Episode VI - Return of the Jedi (1983) [Remastered]


BDRip 1080p Screenshots

Star Wars: Episode VI - Return of the Jedi (1983) [Remastered]

Star Wars: Episode VI - Return of the Jedi (1983) [Remastered]

Star Wars: Episode VI - Return of the Jedi (1983) [Remastered]


Come Visit My Blog (•‿•)