Tags
Language
Tags

Film Europa - Stasi: East Germanys Secret Police (2007)

Posted By: notbanned
SD / WEB-DL
Film Europa - Stasi: East Germanys Secret Police (2007)

Film Europa - Stasi: East Germanys Secret Police (2007)
WEB-DL | 720x480 | .MKV/AVC @ 440 Kbps | 59 min 46 s | 244 MiB
Audio: English AAC 128 kbps, 2 channels | Subs: English
Genre: Documentary

"Had the party given me orders, maybe East Germany would still exist today. You can count on that." (Erich Mielke, Minister of State Security from 1957-1989)

An informative and chilling account of the history of the notorious East German secret police, the Stasi. Up to 90,000 full-time employees and more than 180,000 unofficial informants work for the Ministry for State Security of the GDR, and about one in 50 adults in East Germany collaborated with East Germany's Secret Police. Relative to population, it was the largest secret service in the history of mankind. Headed by the sinister Erich Mielke, the Stasi kept the East German population under constant surveillance. The Stasi - just another intelligence agency, in just another country?
"Shield and Sword of the Party" is what the Stasi calls itself. The Party dictatorship never dares to face its opponents. Instead, the Stasi has to keep all dissenting opinions under control. The goal is total total surveillance. In addition to the state security, the "Stasi" is responsible for foreign intelligence and counter-espionage, personal and property protection, border and passport controls. As the party's shield and sword, the MfS is supposed to keep all enemies of the state under control.
"Die Firma: Stasi" takes a look at the extent of Stasi work and shows the omnipresence of state security - from the enormous headquarters of the Ministry in Berlin through district administrations, local offices, detention facilities, prisons, disguised isolation camps, hidden bunkers, reconnaissance planes, eavesdropping stations to the secret execution site of the GDR. Through tapping phones, reading mail, and installing informers they created an insidious culture of fear and suspicion. This definitive doc reveals the calculated cruelty and brutal repression committed by East Germany's most infamous organisation.

General
Unique ID : 107678984750003828031416647650130460348 (0x510237D621744AC346B5945C7422FEBC)
Complete name : Stasi.East.Germanys.Sct.Police.480p.mkv
Format : Matroska
Format version : Version 4 / Version 2
File size : 244 MiB
Duration : 59 min 46 s
Overall bit rate : 570 kb/s

Video
ID : 1
Format : AVC
Format/Info : Advanced Video Codec
Format profile : Main@L3
Format settings, CABAC : Yes
Format settings, ReFrames : 3 frames
Codec ID : V_MPEG4/ISO/AVC
Duration : 59 min 46 s
Bit rate : 440 kb/s
Width : 720 pixels
Height : 480 pixels
Display aspect ratio : 1.85:1
Frame rate mode : Constant
Frame rate : 25.000 FPS
Color space : YUV
Chroma subsampling : 4:2:0

Audio
ID : 2
Format : AAC
Format/Info : Advanced Audio Codec
Format profile : LC
Codec ID : A_AAC
Duration : 59 min 46 s
Bit rate : 128 kb/s
Channel(s) : 2 channels
Channel positions : Front: L R
Sampling rate : 48.0 kHz
Frame rate : 46.875 FPS (1024 spf)
Compression mode : Lossy
Stream size : 54.7 MiB (22%)
Language : English
Default : Yes
Forced : No

Text
ID : 3
Format : UTF-8
Codec ID : S_TEXT/UTF8
Codec ID/Info : UTF-8 Plain Text
Duration : 58 min 36 s
Bit rate : 81 b/s
Count of elements : 878
Stream size : 35.1 KiB (0%)
Language : English
Default : Yes
Forced : No


Screenshots:

Film Europa - Stasi: East Germanys Secret Police (2007)

Film Europa - Stasi: East Germanys Secret Police (2007)

Film Europa - Stasi: East Germanys Secret Police (2007)

Film Europa - Stasi: East Germanys Secret Police (2007)