Discovery Channel - The American Revolution: Series 1 (2016)

Posted By: Tutorial
Discovery Channel - The American Revolution: Series 1 (2016)

Discovery Channel - The American Revolution: Series.1 (2016)
HDTV | 1280 x 720 | .MP4/AVC @ 2013 Kbps | 3x~44mn | English AAC 161 Kbps, 2 channels | 2.03 GB
Genre: Documentary, History

Everyone knows the story of Paul Revere and his famous midnight ride to warn colonial forces of the British approach. But history books don't tell of the man who sent Revere on his mission: Joseph Warren, America's least remembered founding father. Uncover the forgotten history of Warren and stories of other unsung heroes in our fight for independence in The American Revolution, a new three-part show.
Part 1: Rise of the Patriots
Five unsung patriots strike pivotal blows for American liberty as unrest between Britain and the colonies explodes into a war for independence. A Boston doctor named Joseph Warren spearheads the rebellion with inspiring oratory and an underground spy network; a Rhode Island merchant, John Brown, leads a daring raid against a British customs ship; Samuel Prescott visits his fiance and suddenly finds himself completing Paul Revere's secret mission; Samuel Whittemore, an elderly farmer, becomes an unlikely hero on the first day of hostilities; and a former slave named Salem Poor rallies American militia fighters at Bunker Hill.


Part 2: The Empire Fights Back
Time after time, American independence seems like a lost cause as George Washington's Continental Army teeters on the brink of annihilation. The heroics of five little-known patriots help the colonies live to fight another day. John Glover, a tough New England mariner, saves 9,000 soldiers from certain capture on Long Island; a shadowy double agent, John Honeyman, helps Washington score a stunning victory at Trenton; a teenage girl named Sybil Ludington rides to the rescue of rebels under fire in Connecticut; a Pennsylvania sharpshooter named Timothy Murphy fires a bullet that turns the tide of the war; and an Indian warrior called Han Yerry leads a rescue mission to starving soldiers at Valley Forge.

Part 3: Return of the Rebels
The American Revolution seems doomed as the British army launches a bold new campaign in the south, but five unsung patriots help reverse the course of the war and shock the world. Nancy Hart, a Georgia mother of eight, battles a patrol of loyalists single-handed; Elizabeth Burgin attempts a daring rescue of American POW's in Brooklyn; a supersized soldier named Peter Francisco becomes a legend on the battlefield; a Virginia slave, James Armistead, steals key secrets leading to a stunning victory at Yorktown; and a frontier teenager called Betty Zane runs a gauntlet of death in the Revolution's final battle.

also You can look my other last: History-posts

General
Complete name : The.American.Revolution.Series.1.1of3.Rise.of.the.Patriots.mp4
Format : MPEG-4
Format profile : Base Media / Version 2
Codec ID : mp42
File size : 686 MiB
Duration : 44mn 2s
Overall bit rate mode : Variable
Overall bit rate : 2 180 Kbps
Encoded date : UTC 2017-02-23 13:14:27
Tagged date : UTC 2017-02-23 13:14:27
Writing application : HandBrake 0.10.5 2016021100

Video
ID : 1
Format : AVC
Format/Info : Advanced Video Codec
Format profile : High@L4.1
Format settings, CABAC : Yes
Format settings, ReFrames : 4 frames
Codec ID : avc1
Codec ID/Info : Advanced Video Coding
Duration : 44mn 1s
Bit rate : 2 013 Kbps
Width : 1 280 pixels
Height : 720 pixels
Display aspect ratio : 16:9
Frame rate mode : Constant
Frame rate : 25.000 fps
Color space : YUV
Chroma subsampling : 4:2:0
Bit depth : 8 bits
Scan type : Progressive
Bits/(Pixel*Frame) : 0.087
Stream size : 634 MiB (92%)
Writing library : x264 core 142 r2479 dd79a61
Encoding settings : cabac=1 / ref=1 / deblock=1:0:0 / analyse=0x3:0x113 / me=hex / subme=2 / psy=1 / psy_rd=1.00:0.00 / mixed_ref=0 / me_range=16 / chroma_me=1 / trellis=0 / 8x8dct=1 / cqm=0 / deadzone=21,11 / fast_pskip=1 / chroma_qp_offset=0 / threads=6 / lookahead_threads=2 / sliced_threads=0 / nr=0 / decimate=1 / interlaced=0 / bluray_compat=0 / constrained_intra=0 / bframes=3 / b_pyramid=2 / b_adapt=1 / b_bias=0 / direct=1 / weightb=1 / open_gop=0 / weightp=1 / keyint=250 / keyint_min=25 / scenecut=40 / intra_refresh=0 / rc_lookahead=10 / rc=crf / mbtree=1 / crf=22.0 / qcomp=0.60 / qpmin=0 / qpmax=69 / qpstep=4 / vbv_maxrate=62500 / vbv_bufsize=78125 / crf_max=0.0 / nal_hrd=none / filler=0 / ip_ratio=1.40 / aq=1:1.00
Encoded date : UTC 2017-02-23 13:14:27
Tagged date : UTC 2017-02-23 13:14:27
Color primaries : BT.709-5, BT.1361, IEC 61966-2-4, SMPTE RP177
Transfer characteristics : BT.709-5, BT.1361
Matrix coefficients : BT.709-5, BT.1361, IEC 61966-2-4 709, SMPTE RP177

Audio
ID : 2
Format : AAC
Format/Info : Advanced Audio Codec
Format profile : LC
Codec ID : 40
Duration : 44mn 2s
Bit rate mode : Variable
Bit rate : 161 Kbps
Channel(s) : 2 channels
Channel positions : Front: L R
Sampling rate : 48.0 KHz
Compression mode : Lossy
Stream size : 50.7 MiB (7%)
Title : Stereo
Encoded date : UTC 2017-02-23 13:14:27
Tagged date : UTC 2017-02-23 13:14:27
Screenshots

Discovery Channel - The American Revolution: Series 1 (2016)

Discovery Channel - The American Revolution: Series 1 (2016)

Discovery Channel - The American Revolution: Series 1 (2016)

Discovery Channel - The American Revolution: Series 1 (2016)

Welcome to my blog - daily update!

Discovery Channel - The American Revolution: Series 1 (2016)