Tags
Language
Tags

The Apprentice: You're Fired! S13E11

Posted By: Tavaz
SD / WEB-DL IMDb
The Apprentice: You're Fired! S13E11

The Apprentice: You're Fired! S13E11
WEB-DL | MOV | 704x396 | English | H264 @ 825 kbps | AAC @ 319 kbps | 28 min 59 s | 238 MiB

The Apprentice: You're Fired!, sometimes named You're Fired!, The Apprentice: You're Hired! or You're Hired!, is a British television show made by the BBC and filmed at Riverside Studios as a spin-off from the reality TV hit The Apprentice. It was hosted by Adrian Chiles from 2006 to 2009, and Dara Ó Briain took over as host in 2010 after Chiles' move to ITV. The programme airs in a 30 minute slot after each episode of The Apprentice finishes. It was originally shown on BBC Three, but moved to BBC Two in 2007. Its format is similar to that of Big Brother's Little Brother and Strictly Come Dancing: It Takes Two. The final episode of each series is renamed "The Apprentice: You're Hired!" and involves interviews with the winner, the runner-up and Lord Sugar himself, and a reunion with all of the former candidates.

The.Apprentice.Youre.Fired.UK.S13E11.The.Interviews.WEB-DL.x264-JIVE.mp4 (238.0 MB)



General
Complete name : ./The.Apprentice.Youre.Fired.UK.S13E11.The.Interviews.WEB-DL.x264-JIVE.mp4
Format : MPEG-4
Format profile : Base Media
Codec ID : isom (isom/iso2/avc1/mp41)
File size : 238 MiB
Duration : 28 min 59 s
Overall bit rate mode : Variable
Overall bit rate : 1 148 kb/s
Collection : The Apprentice: You're Fired: Series 13
Season : 13
Album : The Apprentice: You're Fired: Series 13
Album/Performer : BBC TV
Part : 11
Part/Position : 13
Track name : Apprentice Youre Fired Uk S13E11
Track name/Position : 11
Grouping : Entertainment,Discussion & Talk
Performer : BBC Two
Composer : BBC iPlayer
Genre : Entertainment
ContentType : TV Show
Description : Rhod Gilbert and guests meet the candidates who didn't make it through the interviews.
Recorded date : UTC 2017-12-13 22:00:00
Tagged date : UTC 2017-12-13 22:35:47
Writing application : Lavf57.83.100
Copyright : 2017 British Broadcasting Corporation, all rights reserved
Cover : Yes
Lyrics : On this week's Apprentice: You're Fired, it is the interviews! Host Rhod Gilbert and the panel meet the three candidates who didn't make it through and get the lowdown on the two finalists. / / Find out more on the website bbc.co.uk/apprentice or by using #theapprentice. / / EPISODE / http://www.bbc.co.uk/iplayer/episode/b09jgm49 / / SERIES / http://www.bbc.co.uk/programmes/b097s3z4
Comment : {name}
LongDescription : On this week's Apprentice: You're Fired, it is the interviews! Host Rhod Gilbert and the panel meet the three candidates who didn't make it through and get the lowdown on the two finalists. / / Find out more on the website bbc.co.uk/apprentice or by using #theapprentice.
Part_ID : s13e11
TVNetworkName : BBC Two

Video
ID : 1
Format : AVC
Format/Info : Advanced Video Codec
Format profile : Main@L3
Format settings : CABAC / 4 Ref Frames
Format settings, CABAC : Yes
Format settings, RefFrames : 4 frames
Format settings, GOP : M=8, N=96
Codec ID : avc1
Codec ID/Info : Advanced Video Coding
Duration : 28 min 59 s
Bit rate : 825 kb/s
Width : 704 pixels
Height : 396 pixels
Display aspect ratio : 16:9
Frame rate mode : Constant
Frame rate : 25.000 FPS
Color space : YUV
Chroma subsampling : 4:2:0
Bit depth : 8 bits
Scan type : Progressive
Bits/(Pixel*Frame) : 0.118
Stream size : 171 MiB (72%)
Color range : Limited
Color primaries : BT.709
Transfer characteristics : BT.709
Matrix coefficients : BT.709

Audio
ID : 2
Format : AAC
Format/Info : Advanced Audio Codec
Format profile : LC
Codec ID : mp4a-40-2
Duration : 28 min 59 s
Bit rate mode : Variable
Bit rate : 319 kb/s
Channel(s) : 2 channels
Channel positions : Front: L R
Sampling rate : 48.0 kHz
Frame rate : 46.875 FPS (1024 SPF)
Compression mode : Lossy
Stream size : 65.8 MiB (28%)
Language : English
Default : Yes
Alternate group : 1





The Apprentice: You're Fired! S13E11


The Apprentice: You're Fired! S13E11


The Apprentice: You're Fired! S13E11


The Apprentice: You're Fired! S13E11


The Apprentice: You're Fired! S13E11

All episodes