Tags
Language
Tags

The Counterfeit Traitor (1962)

Posted By: Tavaz
1080p (FullHD) / BDRip IMDb
The Counterfeit Traitor (1962)

The Counterfeit Traitor (1962)
BDRip | MKV | 1920x1080 | English | H264 @ 7556 kbps | Opus @ 339 kbps | 2 h 20 min | 8.71 GiB
Subtitles: English
Genre: Drama, History, Thriller, War

Blacklisted in modern day WW2, a Swedish oil trader opts to assist British Allies, by means of infiltrating and surveying Nazi Germany.,An American oil company executive of Swedish descent, now living in Sweden, is blackmailed into spying for the Allies during World War II. At first resentful, his relationship with a beautiful German Allied agent causes him to realize how vital his work is. When he learns that his anti-Nazi German associates are under suspicion from the Gestapo, he risks his own life to go back inside Nazi Germany to finish his work and try to save his friends. It's an exciting story with great characters, filmed partly in the locations where the story took place.::Carol

The.Counterfeit.Traitor.1962.1080p.Bluray.x264-RetroPeeps.part1.rar (4.6 GB)
The.Counterfeit.Traitor.1962.1080p.Bluray.x264-RetroPeeps.part2.rar (4.2 GB)



General
Unique ID : 230327587285179990302966795243181843648 (0xAD477AD00CF02209EE321285C21C24C0)
Complete name : ./The.Counterfeit.Traitor.1962.1080p.Bluray.x264-RetroPeeps.mkv
Format : Matroska
Format version : Version 4 / Version 2
File size : 8.71 GiB
Duration : 2 h 20 min
Overall bit rate mode : Variable
Overall bit rate : 8 850 kb/s
Movie name : The CounterfeitTraitor
Encoded date : UTC 2022-06-04 12:38:07
Writing application : mkvmerge v68.0.0 ('The Curtain') 64-bit
Writing library : libebml v1.4.2 + libmatroska v1.6.4 / Lavf58.76.100

Video
ID : 1
Format : AVC
Format/Info : Advanced Video Codec
Format profile : Main@L4
Format settings : CABAC / 2 Ref Frames
Format settings, CABAC : Yes
Format settings, RefFrames : 2 frames
Codec ID : V_MPEG4/ISO/AVC
Duration : 2 h 20 min
Bit rate mode : Variable
Bit rate : 7 557 kb/s
Maximum bit rate : 16.0 Mb/s
Width : 1 920 pixels
Height : 1 080 pixels
Display aspect ratio : 16:9
Frame rate mode : Constant
Frame rate : 23.976 (24000/1001) FPS
Color space : YUV
Chroma subsampling : 4:2:0
Bit depth : 8 bits
Scan type : Progressive
Bits/(Pixel*Frame) : 0.152
Stream size : 7.44 GiB (85%)
Default : Yes
Forced : No
Color range : Limited
Color primaries : BT.709
Transfer characteristics : BT.709
Matrix coefficients : BT.709

Audio #1
ID : 2
Format : Opus
Codec ID : A_OPUS
Duration : 2 h 20 min
Bit rate : 339 kb/s
Channel(s) : 6 channels
Channel positions : Front: L C R, Rear: L R, LFE
Sampling rate : 48.0 kHz
Frame rate : 50.000 FPS (960 SPF)
Compression mode : Lossy
Delay relative to video : -7 ms
Stream size : 342 MiB (4%)
Title : Surround 5.1
Language : English
Default : Yes
Forced : No

Audio #2
ID : 3
Format : Opus
Codec ID : A_OPUS
Duration : 2 h 20 min
Bit rate : 471 kb/s
Channel(s) : 2 channels
Channel positions : Front: L R
Sampling rate : 48.0 kHz
Frame rate : 50.000 FPS (960 SPF)
Compression mode : Lossy
Delay relative to video : -7 ms
Stream size : 474 MiB (5%)
Title : Stereo
Language : English
Default : No
Forced : No

Audio #3
ID : 4
Format : Opus
Codec ID : A_OPUS
Duration : 2 h 20 min
Bit rate : 466 kb/s
Channel(s) : 2 channels
Channel positions : Front: L R
Sampling rate : 48.0 kHz
Frame rate : 50.000 FPS (960 SPF)
Compression mode : Lossy
Delay relative to video : -7 ms
Stream size : 469 MiB (5%)
Title : Audio commentary by Lee Pfeiffer & Paul Scrabo
Language : English
Default : No
Forced : No

Text
ID : 5
Format : PGS
Muxing mode : zlib
Codec ID : S_HDMV/PGS
Codec ID/Info : Picture based subtitle format used on BDs/HD-DVDs
Duration : 2 h 16 min
Bit rate : 31.7 kb/s
Count of elements : 3081
Stream size : 31.0 MiB (0%)
Language : English
Default : No
Forced : No

Menu
00:00:00.000 : :Chapter 1
00:02:29.149 : :Chapter 2
00:10:25.959 : :Chapter 3
00:23:39.919 : :Chapter 4
00:33:31.843 : :Chapter 5
00:44:34.338 : :Chapter 6
01:02:19.402 : :Chapter 7
01:16:12.568 : :Chapter 8
01:32:21.036 : :Chapter 9
01:49:28.729 : :Chapter 10
02:04:49.649 : :Chapter 11
02:17:31.243 : :Chapter 12





The Counterfeit Traitor (1962)


The Counterfeit Traitor (1962)


The Counterfeit Traitor (1962)


The Counterfeit Traitor (1962)


The Counterfeit Traitor (1962)