The Curse of Oak Island S05E07

Posted By: Tavaz
SD / WEBRip IMDb
The Curse of Oak Island S05E07

The Curse of Oak Island S05E07
WEBRip | MOV | 720x400 | English | H264 @ 1100 kbps | AAC @ 128 kbps | 40 min 41 s | 359 MiB
Genre: Mystery, Documentary

The Curse of Oak Island follows brothers Marty and Rick Lagina originally from Kingsford, Michigan through their effort to find the speculated - and as of yet undiscovered - buried treasure believed to have been concealed through extraordinary means on Oak Island. The brothers became fascinated with the island after reading the January, 1965 issue of Reader's Digest magazine which featured an article on the Restall family's work to solve the mystery of the so-called "Money Pit."

No one knows what's buried at Oak Island. Theories range from pirate treasure to Shakespeare's Lost Folios to a priceless religious artifact brought over by the Knights Templar. The myths of the island have proven irresistible to many, including historical figures like John Wayne, Errol Flynn and Franklin D. Roosevelt, who all financed or took part in digs in what's become one of the longest treasure hunts in history.

225cc94a222246baa30e8ef55d68b5be.mp4 (359.1 MB)



General
Complete name : ./225cc94a222246baa30e8ef55d68b5be.mp4
Format : MPEG-4
Format profile : Base Media
Codec ID : isom (isom/iso2/avc1/mp41)
File size : 359 MiB
Duration : 40 min 41 s
Overall bit rate : 1 234 kb/s
Movie name : RARBG - The.Curse.of.Oak.Island.S05E07.WEBRip.x264-RARBG
Encoded date : UTC 2017-12-22 07:35:30
Tagged date : UTC 2017-12-22 07:35:30
Writing application : Lavf57.71.100
Comment : RARBG - The.Curse.of.Oak.Island.S05E07.WEBRip.x264-RARBG

Video
ID : 1
Format : AVC
Format/Info : Advanced Video Codec
Format profile : High@L3.1
Format settings : CABAC / 5 Ref Frames
Format settings, CABAC : Yes
Format settings, RefFrames : 5 frames
Codec ID : avc1
Codec ID/Info : Advanced Video Coding
Duration : 40 min 41 s
Bit rate : 1 100 kb/s
Width : 720 pixels
Height : 400 pixels
Display aspect ratio : 16:9
Frame rate mode : Constant
Frame rate : 23.976 (24000/1001) FPS
Color space : YUV
Chroma subsampling : 4:2:0
Bit depth : 8 bits
Scan type : Progressive
Bits/(Pixel*Frame) : 0.159
Stream size : 320 MiB (89%)
Title : RARBG - The.Curse.of.Oak.Island.S05E07.WEBRip.x264-RARBG
Writing library : x264 core 152 r2851M ba24899
Encoding settings : cabac=1 / ref=5 / deblock=1:-1:-1 / analyse=0x3:0x113 / me=umh / subme=9 / psy=1 / psy_rd=1.00:0.15 / mixed_ref=1 / me_range=16 / chroma_me=1 / trellis=2 / 8x8dct=1 / cqm=0 / deadzone=21,11 / fast_pskip=1 / chroma_qp_offset=-3 / threads=12 / lookahead_threads=1 / sliced_threads=0 / nr=0 / decimate=1 / interlaced=0 / bluray_compat=0 / constrained_intra=0 / bframes=3 / b_pyramid=2 / b_adapt=2 / b_bias=0 / direct=3 / weightb=1 / open_gop=0 / weightp=2 / keyint=250 / keyint_min=23 / scenecut=40 / intra_refresh=0 / rc_lookahead=50 / rc=abr / mbtree=1 / bitrate=1100 / ratetol=1.0 / qcomp=0.60 / qpmin=0 / qpmax=69 / qpstep=4 / ip_ratio=1.40 / aq=1:1.00
Encoded date : UTC 2017-12-22 07:35:30
Tagged date : UTC 2017-12-22 07:35:30

Audio
ID : 2
Format : AAC
Format/Info : Advanced Audio Codec
Format profile : LC
Codec ID : mp4a-40-2
Duration : 40 min 41 s
Bit rate mode : Constant
Bit rate : 128 kb/s
Channel(s) : 2 channels
Channel positions : Front: L R
Sampling rate : 48.0 kHz
Frame rate : 46.875 FPS (1024 SPF)
Compression mode : Lossy
Stream size : 37.3 MiB (10%)
Title : RARBG - The.Curse.of.Oak.Island.S05E07.WEBRip.x264-RARBG
Language : English
Default : Yes
Alternate group : 1
Encoded date : UTC 2017-12-22 07:35:30
Tagged date : UTC 2017-12-22 07:35:30





The Curse of Oak Island S05E07


The Curse of Oak Island S05E07


The Curse of Oak Island S05E07


The Curse of Oak Island S05E07


The Curse of Oak Island S05E07

All episodes