Tags
Language
Tags

The Deuce S01E08

Posted By: Tavaz
1080p (FullHD) / WEB-DL IMDb
The Deuce S01E08

The Deuce S01E08
WEB-DL Mux | MKV | 1920x1080 | Italian / English | H264 @ 9501 kbps | AC-3 @ 384 kbps | 1 h 8 min | 4.91 GiB
Subtitles: English, Italian
Genre: Drama

Ambientata a New York tra gli anni settanta e gli anni ottanta, la serie racconta della legalizzazione dell'industria pornografica e della sua successiva diffusione in un periodo storico in cui l'HIV si sta rapidamente diffondendo e il traffico di cocaina genera continue ondate di violenza.



The.Deuce.1x08.Il.Mio.Nome.E.Ruby.ITA-ENG.1080p.DLMux.DD5.1.x264-NovaRip.mkv (4.9 GB)



General
Unique ID : 99536806311520835851061678934145489644 (0x4AE21772134FE04F35428096E529DAEC)
Complete name : ./The.Deuce.1x08.Il.Mio.Nome.E.Ruby.ITA-ENG.1080p.DLMux.DD5.1.x264-NovaRip.mkv
Format : Matroska
Format version : Version 2
File size : 4.91 GiB
Duration : 1 h 8 min
Overall bit rate : 10.3 Mb/s
Encoded date : UTC 2017-11-23 22:00:52
Writing application : mkvmerge v8.5.2 ('Crosses') 64bit
Writing library : libebml v1.3.3 + libmatroska v1.4.4

Video
ID : 1
Format : AVC
Format/Info : Advanced Video Codec
Format profile : High@L4.1
Format settings : CABAC / 4 Ref Frames
Format settings, CABAC : Yes
Format settings, RefFrames : 4 frames
Codec ID : V_MPEG4/ISO/AVC
Duration : 1 h 8 min
Bit rate : 9 502 kb/s
Width : 1 920 pixels
Height : 1 080 pixels
Display aspect ratio : 16:9
Frame rate mode : Constant
Frame rate : 25.000 FPS
Original frame rate : 23.976 (24000/1001) FPS
Color space : YUV
Chroma subsampling : 4:2:0
Bit depth : 8 bits
Scan type : Progressive
Bits/(Pixel*Frame) : 0.183
Stream size : 4.54 GiB (92%)
Writing library : x264 core 148 r2762 90a61ec
Encoding settings : cabac=1 / ref=4 / deblock=1:-2:-2 / analyse=0x3:0x133 / me=umh / subme=7 / psy=1 / psy_rd=1.00:0.00 / mixed_ref=1 / me_range=16 / chroma_me=1 / trellis=2 / 8x8dct=1 / cqm=0 / deadzone=21,11 / fast_pskip=0 / chroma_qp_offset=-2 / threads=6 / lookahead_threads=1 / sliced_threads=0 / nr=0 / decimate=1 / interlaced=0 / bluray_compat=0 / constrained_intra=0 / bframes=5 / b_pyramid=2 / b_adapt=2 / b_bias=0 / direct=3 / weightb=1 / open_gop=0 / weightp=2 / keyint=250 / keyint_min=23 / scenecut=40 / intra_refresh=0 / rc_lookahead=40 / rc=crf / mbtree=1 / crf=21.0 / qcomp=0.60 / qpmin=0 / qpmax=69 / qpstep=4 / ip_ratio=1.40 / aq=1:1.00
Language : English
Default : Yes
Forced : Yes

Audio #1
ID : 2
Format : AC-3
Format/Info : Audio Coding 3
Format settings, Endianness : Big
Codec ID : A_AC3
Duration : 1 h 8 min
Bit rate mode : Constant
Bit rate : 384 kb/s
Channel(s) : 6 channels
Channel positions : Front: L C R, Side: L R, LFE
Sampling rate : 48.0 kHz
Frame rate : 31.250 FPS (1536 SPF)
Bit depth : 16 bits
Compression mode : Lossy
Stream size : 188 MiB (4%)
Title : ITA
Language : Italian
Service kind : Complete Main
Default : Yes
Forced : Yes

Audio #2
ID : 3
Format : AC-3
Format/Info : Audio Coding 3
Format settings, Endianness : Big
Codec ID : A_AC3
Duration : 1 h 8 min
Bit rate mode : Constant
Bit rate : 384 kb/s
Channel(s) : 6 channels
Channel positions : Front: L C R, Side: L R, LFE
Sampling rate : 48.0 kHz
Frame rate : 31.250 FPS (1536 SPF)
Bit depth : 16 bits
Compression mode : Lossy
Stream size : 188 MiB (4%)
Title : ENG
Language : English
Service kind : Complete Main
Default : No
Forced : No

Text #1
ID : 4
Format : UTF-8
Codec ID : S_TEXT/UTF8
Codec ID/Info : UTF-8 Plain Text
Duration : 42 s 920 ms
Bit rate : 147 b/s
Count of elements : 20
Stream size : 794 Bytes (0%)
Title : ITA - Forced
Language : Italian
Default : Yes
Forced : Yes

Text #2
ID : 5
Format : UTF-8
Codec ID : S_TEXT/UTF8
Codec ID/Info : UTF-8 Plain Text
Duration : 1 h 7 min
Bit rate : 68 b/s
Count of elements : 1078
Stream size : 33.8 KiB (0%)
Title : ITA
Language : Italian
Default : No
Forced : No

Text #3
ID : 6
Format : UTF-8
Codec ID : S_TEXT/UTF8
Codec ID/Info : UTF-8 Plain Text
Duration : 1 h 7 min
Bit rate : 68 b/s
Count of elements : 1122
Stream size : 33.7 KiB (0%)
Title : ENG
Language : English
Default : No
Forced : No





The Deuce S01E08


The Deuce S01E08


The Deuce S01E08


The Deuce S01E08


The Deuce S01E08

All episodes