Tags
Language
Tags

National Geographic - The Greeks: Series 1 (2016)

Posted By: Tutorial
National Geographic - The Greeks: Series 1 (2016)

National Geographic - The Greeks: Series 1 (2016)
HDTV | 1280 x 720 | .MP4/AVC @ 3073 Kbps | 3x~54mn | English AAC 160 Kbps, 2 channels | 3.61 GB
Genre: Documentary

They were an extraordinary people born of white rock and blue sea. They invented democracy, distilled logic and reason, wrote plays to plumb the deepest recesses of the soul, and captured the perfection of the human form in athletics and art. Quite simply, the Greeks created our world.
Today, of course, Greece conjures very different images: civic unrest, financial meltdowns, long ATM lines. But as its ancient history attests, strife and discord are often incubators for greatness. From their beginnings as hunter-gatherers in harsh, unforgiving landscapes; to surviving the worst collapse in human history; to facing off against the greatest empire the world had ever known, the Greeks would have to overcome incredible odds to pave the way for the modern West.
In National Geographic’s landmark event series The Greeks, historians and archaeologists, actors and athletes, scientists and artists launch a groundbreaking exploration into the ancient Greeks’ journey — not just to better understand their past, but to discover how their legacy illuminates our present, and will shape our future. The story of the Greeks is the story of us.

Part 1: Cavemen to Kings

Uncover the origin story of Western civilization, as the early Greeks rise from nothing and change everything—laying the groundwork for a revolution in human thought.


Part 2: The Good Strife
Explore history as the ancient Greeks emerge from the first dark ages to compose timeless epics, compete in the original Olympic Games, conjure early theories of nature, and construct the world’s first democracy.


Part 3: Chasing Greatness

Discover how the ancient Greeks finally reached the peak of civilization—revolutionizing art, architecture, drama, philosophy and government—and left a legacy that still points the way forward.

General
Complete name : The.Greeks.1of3.Cavemen.to.Kings.mp4
Format : MPEG-4
Format profile : Base Media
Codec ID : isom
File size : 1.24 GiB
Duration : 54mn 49s
Overall bit rate mode : Variable
Overall bit rate : 3 239 Kbps
Encoded date : UTC 2016-07-16 11:06:08
Tagged date : UTC 2016-07-16 11:06:08
Writing application : My MP4Box GUI 0.6.0.6

Video
ID : 1
Format : AVC
Format/Info : Advanced Video Codec
Format profile : High@L4.1
Format settings, CABAC : Yes
Format settings, ReFrames : 4 frames
Codec ID : avc1
Codec ID/Info : Advanced Video Coding
Duration : 54mn 49s
Bit rate : 3 073 Kbps
Maximum bit rate : 13.8 Mbps
Width : 1 280 pixels
Height : 720 pixels
Display aspect ratio : 16:9
Frame rate mode : Variable
Frame rate : 29.970 fps
Minimum frame rate : 29.412 fps
Maximum frame rate : 30.303 fps
Color space : YUV
Chroma subsampling : 4:2:0
Bit depth : 8 bits
Scan type : Progressive
Bits/(Pixel*Frame) : 0.111
Stream size : 1.18 GiB (95%)
Title : National.Geographic.The.Greeks.1of3.Cavemen.to.Kings.720p.HDTV.x264.AAC.MVGroup.org.mp4
Writing library : x264 core 142 r2479 dd79a61
Encoding settings : cabac=1 / ref=1 / deblock=1:0:0 / analyse=0x3:0x3 / me=dia / subme=1 / psy=1 / psy_rd=1.00:0.00 / mixed_ref=0 / me_range=16 / chroma_me=1 / trellis=0 / 8x8dct=1 / cqm=0 / deadzone=21,11 / fast_pskip=1 / chroma_qp_offset=0 / threads=3 / lookahead_threads=1 / sliced_threads=0 / nr=0 / decimate=1 / interlaced=0 / bluray_compat=0 / constrained_intra=0 / bframes=3 / b_pyramid=2 / b_adapt=1 / b_bias=0 / direct=1 / weightb=1 / open_gop=0 / weightp=1 / keyint=300 / keyint_min=30 / scenecut=40 / intra_refresh=0 / rc_lookahead=0 / rc=crf / mbtree=0 / crf=22.0 / qcomp=0.60 / qpmin=0 / qpmax=69 / qpstep=4 / vbv_maxrate=62500 / vbv_bufsize=78125 / crf_max=0.0 / nal_hrd=none / filler=0 / ip_ratio=1.40 / pb_ratio=1.30 / aq=1:1.00
Encoded date : UTC 2016-07-16 10:00:15
Tagged date : UTC 2016-07-16 11:10:26
Color primaries : BT.709-5, BT.1361, IEC 61966-2-4, SMPTE RP177
Transfer characteristics : BT.709-5, BT.1361
Matrix coefficients : BT.709-5, BT.1361, IEC 61966-2-4 709, SMPTE RP177

Audio
ID : 2
Format : AAC
Format/Info : Advanced Audio Codec
Format profile : LC
Codec ID : 40
Duration : 54mn 49s
Bit rate mode : Variable
Bit rate : 160 Kbps
Maximum bit rate : 192 Kbps
Channel(s) : 2 channels
Channel positions : Front: L R
Sampling rate : 48.0 KHz
Compression mode : Lossy
Stream size : 62.9 MiB (5%)
Title : National.Geographic.The.Greeks.1of3.Cavemen.to.Kings.720p.HDTV.x264.AAC.MVGroup.org.mp4
Encoded date : UTC 2016-07-16 11:10:17
Tagged date : UTC 2016-07-16 11:10:26

Text
ID : 3
Format : Timed text
Codec ID : tx3g
Duration : 54mn 49s
Bit rate mode : Variable
Bit rate : 129 bps
Stream size : 51.9 KiB (0%)
Title : National.Geographic.The.Greeks.1of3.Cavemen.to.Kings.720p.HDTV.x264.AAC.MVGroup.org.srt
Encoded date : UTC 2016-07-16 11:10:26
Tagged date : UTC 2016-07-16 11:10:26
Screenshots

National Geographic - The Greeks: Series 1 (2016)

National Geographic - The Greeks: Series 1 (2016)

National Geographic - The Greeks: Series 1 (2016)

National Geographic - The Greeks: Series 1 (2016)

National Geographic - The Greeks: Series 1 (2016)

Welcome to my blog - daily update!

National Geographic - The Greeks: Series 1 (2016)