Tags
Language
Tags

The Haunted House on Kirby Road (2016)

Posted By: Tavaz
1080p (FullHD) / WEB-DL IMDb
The Haunted House on Kirby Road (2016)

The Haunted House on Kirby Road (2016)
WEB-DL | MKV | 1920x800 | English | H264 @ 5560 kbps | E-AC-3 @ 640 kbps | 1 h 26 min | 3.74 GiB
Subtitles: English
Genre: Adventure, Comedy, Horror

Six stoner best friends discover a viral video of a local teen who disappeared years ago from an alleged haunted house in their neighbourhood. Searching for one last adventure before graduating high school, the teens decide to investigate this local urban legend, only to discover this night could be their worst, and possible last, experience of their lives.

fe8adea322984de19c70824093c81179.mkv (3.7 GB)



General
Complete name : ./fe8adea322984de19c70824093c81179.mkv
Format : Matroska
Format version : Version 4 / Version 2
File size : 3.74 GiB
Duration : 1 h 26 min
Overall bit rate mode : Variable
Overall bit rate : 6 203 kb/s
Encoded date : UTC 2018-06-12 07:30:55
Writing application : mkvmerge v21.0.0 ('Tardigrades Will Inherit The Earth') 64-bit
Writing library : libebml v1.3.5 + libmatroska v1.4.8

Video
ID : 1
Format : AVC
Format/Info : Advanced Video Codec
Format profile : High@L4
Format settings : CABAC / 4 Ref Frames
Format settings, CABAC : Yes
Format settings, RefFrames : 4 frames
Codec ID : V_MPEG4/ISO/AVC
Duration : 1 h 26 min
Bit rate mode : Variable
Bit rate : 5 561 kb/s
Maximum bit rate : 15.0 Mb/s
Width : 1 920 pixels
Height : 800 pixels
Display aspect ratio : 2.40:1
Frame rate mode : Constant
Frame rate : 23.976 (24000/1001) FPS
Color space : YUV
Chroma subsampling : 4:2:0
Bit depth : 8 bits
Scan type : Progressive
Bits/(Pixel*Frame) : 0.151
Stream size : 3.36 GiB (90%)
Default : Yes
Forced : No
Color range : Limited
Color primaries : BT.709
Transfer characteristics : BT.709
Matrix coefficients : BT.709

Audio
ID : 2
Format : E-AC-3
Format/Info : Enhanced Audio Coding 3
Format settings, Endianness : Big
Codec ID : A_EAC3
Duration : 1 h 26 min
Bit rate mode : Constant
Bit rate : 640 kb/s
Channel(s) : 6 channels
Channel positions : Front: L C R, Side: L R, LFE
Sampling rate : 48.0 kHz
Frame rate : 187.500 FPS (256 SPF)
Compression mode : Lossy
Stream size : 396 MiB (10%)
Language : English
Service kind : Complete Main
Default : Yes
Forced : No

Text
ID : 3
Format : UTF-8
Codec ID : S_TEXT/UTF8
Codec ID/Info : UTF-8 Plain Text
Duration : 1 h 22 min
Bit rate : 48 b/s
Count of elements : 1127
Stream size : 29.3 KiB (0%)
Title : SDH
Language : English
Default : No
Forced : No





The Haunted House on Kirby Road (2016)


The Haunted House on Kirby Road (2016)


The Haunted House on Kirby Road (2016)


The Haunted House on Kirby Road (2016)


The Haunted House on Kirby Road (2016)