Telerails - The Lost Railways (2007)

Posted By: ParRus
Telerails - The Lost Railways (2007)

Telerails - The Lost Railways (2007)
SAT-Rip | English | MP4 | 720 x 544 | AVC ~1520 Kbps | 25 fps
AAC | 128 kbps | 48.0 KHz | 2 channels | 00:58:28 | 691 MB
Genre: Documentary

A combination of archive film and modern-day video of British railway lines which have closed since the 1950s.Featured lines are the Great Central Railway from London to Nottingham, the Somerset and Dorset route from Bath to Bournemouth, and The Waverley Route between Edinburgh and Carlisle.This is a very good nostalgic compilation of past railways and lost lines
General
Complete name : The.Lost.Railways.mp4
Format : MPEG-4
Format profile : Base Media
Codec ID : isom
File size : 691 MiB
Duration : 58mn 28s
Overall bit rate mode : Variable
Overall bit rate : 1 652 Kbps
Encoded date : UTC 2013-01-07 07:23:33
Tagged date : UTC 2013-01-07 07:23:33
Writing application : Lavf51.12.1
Video #1
ID : 1
Format : AVC
Format/Info : Advanced Video Codec
Format profile : High@L3.0
Format settings, CABAC : No
Format settings, ReFrames : 1 frame
Format settings, GOP : M=1, N=12
Codec ID : avc1
Codec ID/Info : Advanced Video Coding
Duration : 58mn 28s
Bit rate : 1 520 Kbps
Width : 720 pixels
Height : 544 pixels
Display aspect ratio : 4:3
Frame rate mode : Constant
Frame rate : 25.000 fps
Color space : YUV
Chroma subsampling : 4:2:0
Bit depth : 8 bits
Scan type : Progressive
Bits/(Pixel*Frame) : 0.155
Stream size : 636 MiB (92%)
Encoded date : UTC 2013-01-07 07:23:33
Tagged date : UTC 2013-01-07 07:23:33
Audio #2
ID : 2
Format : AAC
Format/Info : Advanced Audio Codec
Format profile : LC
Codec ID : 40
Duration : 58mn 28s
Bit rate mode : Variable
Bit rate : 128 Kbps
Channel(s) : 2 channels
Channel positions : Front: L R
Sampling rate : 48.0 KHz
Compression mode : Lossy
Stream size : 53.5 MiB (8%)
Encoded date : UTC 2013-01-07 07:23:33
Tagged date : UTC 2013-01-07 07:23:33

ScreenShots

Telerails - The Lost Railways (2007)

Telerails - The Lost Railways (2007)

Telerails - The Lost Railways (2007)

Telerails - The Lost Railways (2007)

For more, Visit my AH-blog

no mirrors please, Follow The Rules