The Night Shift S03E01 (2016)

Posted By: Limon4iK
The Night Shift S03E01 (2016)

The Night Shift S03E01 (2016)
HDTV-Rip | AVI / xvid@1304 Kbps | 640x360 | 41mn | 426 MB | English: MP-3, 128 Kbps (2 channels)
HDTV 720p | MKV / AVC@2584 Kbps | 1280x720 | 41mn | 893 MB | English: AC-3, 384 Kbps (6 channels)
Genre: Drama

A group of doctors from the Army return to work the night shift at a hospital in San Antonio.


Country: United States
Release Date: June 1, 2016
Genres: Drama
Created by: Gabe Sachs, Jeff Judah.
Cast: Eoin Macken as Dr. TC Callahan, Jill Flint as Dr. Jordan Alexander, Ken Leung as Dr. Topher Zia, Brendan Fehr as Dr. Drew Alister, Robert Bailey Jr. as Dr. Paul Cummings, JR Lemon as ER Nurse Kenny Fournette, Scott Wolf as Dr. Scott Clemmens, Tanaya Beatty as Dr. Shannon Beatty

The Night Shift season 3 centers on interesting and complex work of military doctors in a hospital situated in San Antonio. These doctors are not like regular medics working in regular hospitals. They have special skills which they owe to the hardships of military service. These medical professionals are always hard at work and completely dedicated to what they do. The series follows the doctors who work at night.

Every night they are ready for any urgent situations and are first to come to the place where an accident happens. Very often they risk their lives and make their patents come back to life. Hard times come to the hospital when they appoint a new Head, and this man’s first interest is cutting the budget and the staff and it obviously comes before the fate of those people who really need medical help. Danger awaits the doctors around every corner and this affects not only their work, but their personal life as well.

Episode 1: The Times They Are A-Changin
The overnight crew becomes immersed in a bizarre car-accident rescue in the Season 3 opener. Also: Drew serves overseas in Afghanistan and teams with a colleague (Jennifer Beals) to treat an Afghani woman; and a spunky grad joins the shift.

IMDB - 3 wins & 1 nomination


General
Filename: The.Night.Shift.S03E01.hdtv.avi
Format: AVI
Format/Info: Audio Video Interleave
Filesize: 426 MB
Duration: 00:41:15
Overallbitrate: 1445 Kbps

Video
Format: xvid
Codec ID: xvid
CodecID/Hint:
Bit rate: 1304 Kbps
Width: 640
Height: 360
Display aspect ratio: 16:9
Frame rate: 23.976 fps
Chroma subsampling:
Scan type: Progressive
Bits: 0.236
Stream size: 385 MiB (90%)

Audio
Format: MPEG Audio
Format version: Version 1
Format profile: Layer 3
Mode: Joint stereo
Mode extension: MS Stereo
CodecID/Hint: MP3
Duration: 00:41:15
Bitrate mode Constant
Bitrate: 128 Kbps
Channel(s): 2 channels
Samplingrate: 48.0 KHz
Compression mode Lossy
Stream size:37.8 MiB (9%)
Alignment: Aligned on interleaves
Interleave,duration: 24 ms (0.58 video frame)
Interleave,preloadduration: 24 ms


General
Filename: The.Night.Shift.S03E01.720p.mkv
Format: Matroska
Format/Info:
Filesize: 893 MB
Duration: 00:41:15
Overallbitrate: 3028 Kbps

Video
Format: AVC
Format profile: High@L4.1
Codec ID: V_MPEG4/ISO/AVC
CodecID/Hint:
Bit rate: 2584 Kbps
Width: 1280
Height: 720
Display aspect ratio: 16:9
Frame rate: 23.976 fps
Color space: YUV
Chroma subsampling: 4:2:0
Bit depth: 8 bits
Scan type: Progressive
Compression mode:
Bits: 0.117
Stream size: 762 MiB (85%)

Audio
Format: AC-3
Format version:
Format profile:
Format/Info: Audio Coding 3
Mode:
Mode extension: CM (complete main)
CodecID/Hint:
Duration: 00:41:15
Bitrate mode Constant
Bitrate: 384 Kbps
Channel(s): 6 channels
Samplingrate: 48.0 KHz
Compression mode Lossy
Stream size:113 MiB (13%)


Screenshots HDTV-Rip

The Night Shift S03E01 (2016)

The Night Shift S03E01 (2016)

The Night Shift S03E01 (2016)

The Night Shift S03E01 (2016)


Screenshots HDTV 720p

The Night Shift S03E01 (2016)

The Night Shift S03E01 (2016)

The Night Shift S03E01 (2016)

The Night Shift S03E01 (2016)