The Pixar Story (2007)

Posted By: Tavaz
SD / BluRay Remux IMDb
The Pixar Story (2007)

The Pixar Story (2007)
BluRay Remux | MKV | 1920x1080 | English | H264 @ 18882 kbps | AC-3 @ 192 kbps | 1 h 28 min | 11.8 GiB
Subtitles: Spanish, French, English
Genre: Documentary

A look at the first years of Pixar Animation Studios - from the success of "Toy Story" and Pixar's promotion of talented people, to the building of its East Bay campus, the company's relationship with Disney, and its remarkable initial string of eight hits. The contributions of John Lasseter, Ed Catmull and Steve Jobs are profiled. The decline of two-dimensional animation is chronicled as three-dimensional animation rises. Hard work and creativity seem to share the screen in equal proportions.

fb15be8135ce4334ba96b2da7bfc7382.mkv (11.8 GB)



General
Complete name : ./fb15be8135ce4334ba96b2da7bfc7382.mkv
Format : Matroska
Format version : Version 4 / Version 2
File size : 11.8 GiB
Duration : 1 h 28 min
Overall bit rate mode : Variable
Overall bit rate : 19.1 Mb/s
Encoded date : UTC 2018-04-08 22:24:09
Writing application : mkvmerge v22.0.0 ('At The End Of The World') 64-bit
Writing library : libebml v1.3.5 + libmatroska v1.4.8

Video
ID : 1
Format : AVC
Format/Info : Advanced Video Codec
Format profile : High@L4.1
Format settings : CABAC / 4 Ref Frames
Format settings, CABAC : Yes
Format settings, RefFrames : 4 frames
Codec ID : V_MPEG4/ISO/AVC
Duration : 1 h 28 min
Bit rate mode : Variable
Bit rate : 18.9 Mb/s
Maximum bit rate : 40.0 Mb/s
Width : 1 920 pixels
Height : 1 080 pixels
Display aspect ratio : 16:9
Frame rate mode : Constant
Frame rate : 23.976 (24000/1001) FPS
Color space : YUV
Chroma subsampling : 4:2:0
Bit depth : 8 bits
Scan type : Progressive
Bits/(Pixel*Frame) : 0.380
Stream size : 11.7 GiB (99%)
Title : MPEG-4 AVC Video / 18888 kbps / 1080p / 23.976 fps / 16:9 / High Profile 4.1
Language : English
Default : Yes
Forced : No
Color range : Limited
Color primaries : BT.709
Transfer characteristics : BT.709
Matrix coefficients : BT.709

Audio
ID : 2
Format : AC-3
Format/Info : Audio Coding 3
Mode : Dolby Digital
Format settings, Endianness : Big
Codec ID : A_AC3
Duration : 1 h 28 min
Bit rate mode : Constant
Bit rate : 192 kb/s
Channel(s) : 2 channels
Channel positions : Front: L R
Sampling rate : 48.0 kHz
Frame rate : 31.250 FPS (1536 SPF)
Bit depth : 16 bits
Compression mode : Lossy
Stream size : 122 MiB (1%)
Title : Dolby Digital Audio / 2.0 / 48 kHz / 192 kbps / Dolby Surround
Language : English
Service kind : Complete Main
Default : Yes
Forced : No

Text #1
ID : 3
Format : PGS
Muxing mode : zlib
Codec ID : S_HDMV/PGS
Codec ID/Info : Picture based subtitle format used on BDs/HD-DVDs
Duration : 1 h 23 min
Bit rate : 78.2 kb/s
Count of elements : 3287
Stream size : 46.8 MiB (0%)
Language : English
Default : No
Forced : No

Text #2
ID : 4
Format : PGS
Muxing mode : zlib
Codec ID : S_HDMV/PGS
Codec ID/Info : Picture based subtitle format used on BDs/HD-DVDs
Duration : 1 h 24 min
Bit rate : 8 043 b/s
Count of elements : 380
Stream size : 4.84 MiB (0%)
Language : French
Default : No
Forced : No

Text #3
ID : 5
Format : PGS
Muxing mode : zlib
Codec ID : S_HDMV/PGS
Codec ID/Info : Picture based subtitle format used on BDs/HD-DVDs
Duration : 1 h 23 min
Bit rate : 7 100 b/s
Count of elements : 340
Stream size : 4.23 MiB (0%)
Language : Spanish
Default : No
Forced : No

Menu
00:00:00.000 : en:Chapter 1
00:07:53.598 : en:Chapter 2
00:13:37.191 : en:Chapter 3
00:20:20.510 : en:Chapter 4
00:29:53.041 : en:Chapter 5
00:37:11.354 : en:Chapter 6
00:44:35.798 : en:Chapter 7
00:52:29.938 : en:Chapter 8
01:00:21.326 : en:Chapter 9
01:05:09.113 : en:Chapter 10
01:10:21.425 : en:Chapter 11
01:17:44.618 : en:Chapter 12
01:23:03.228 : en:Chapter 13





The Pixar Story (2007)


The Pixar Story (2007)


The Pixar Story (2007)


The Pixar Story (2007)


The Pixar Story (2007)