Subcategories

The Sacred City (2016)

Posted By: Tutorial
The Sacred City (2016)

The Sacred City (2016)
HDTV-Rip | 1020 x 640 | .MP4/AVC @ 714 Kbps | 1h 25mn | English AAC 160 kbps, 2 channels | 537 MB
Genre: Documentary

The Sacred City presents compelling evidence that suggests the holy city of Mecca is in the wrong location and that the worlds 1.6 billion Muslims are praying in the direction of the wrong city. Compiling evidence from both historic sources and new technologies point to the correct location in this seismic, revelatory new film.
In this startling and original documentary, writer and historian, Dan Gibson, shows that descriptions of Mohamed’s original holy city – as detailed in the Qur’an and Islamic histories, do not match that of the Mecca we know today. If true this could shake Islam to it’s roots, because every Muslim is required to pray towards the ‘forbidden gathering place’. If Dan Gibson is right, Muslims are praying in the wrong direction.
In the film ‘The Sacred City’ we set out his evidence from within Islamic and ancient histories – while also using modern technologies - to track down the biggest secret of the last fifteen hundred years. Gibson not only finds the location of the original Mecca but also provides a convincing argument as to how such a great misunderstanding in Islamic history came about.
While clearly controversial, The Sacred City is respectful of Islam’s prophet, and does not dispute the events of the Qur’an; but shows how a deliberate attempt was made to hide from Islam, secrets that impact every Muslim today. The evidence is compelling and fascinating.
In a time when the world agenda is being set by Islam, it is more important than ever for the origins and history of this world religion to be examined afresh. This is an important documentary with world-wide appeal for both religious and secular audiences.

General
Complete name : The.Sacred.City.mp4
Format : MPEG-4
Format profile : Base Media / Version 2
Codec ID : mp42
File size : 537 MiB
Duration : 1h 25mn
Overall bit rate mode : Variable
Overall bit rate : 880 Kbps
Encoded date : UTC 2016-06-19 18:12:25
Tagged date : UTC 2016-06-19 18:12:25
Writing application : HandBrake 0.10.5 2016021100

Video
ID : 1
Format : AVC
Format/Info : Advanced Video Codec
Format profile : Main@L4.0
Format settings, CABAC : Yes
Format settings, ReFrames : 4 frames
Codec ID : avc1
Codec ID/Info : Advanced Video Coding
Duration : 1h 25mn
Bit rate : 714 Kbps
Width : 1 020 pixels
Height : 640 pixels
Display aspect ratio : 1.594
Frame rate mode : Constant
Frame rate : 25.000 fps
Color space : YUV
Chroma subsampling : 4:2:0
Bit depth : 8 bits
Scan type : Progressive
Bits/(Pixel*Frame) : 0.044
Stream size : 435 MiB (81%)
Writing library : x264 core 142 r2479 dd79a61
Encoding settings : cabac=1 / ref=1 / deblock=1:0:0 / analyse=0x1:0x111 / me=hex / subme=2 / psy=1 / psy_rd=1.00:0.00 / mixed_ref=0 / me_range=16 / chroma_me=1 / trellis=0 / 8x8dct=0 / cqm=0 / deadzone=21,11 / fast_pskip=1 / chroma_qp_offset=0 / threads=6 / lookahead_threads=2 / sliced_threads=0 / nr=0 / decimate=1 / interlaced=0 / bluray_compat=0 / constrained_intra=0 / bframes=3 / b_pyramid=2 / b_adapt=1 / b_bias=0 / direct=1 / weightb=1 / open_gop=0 / weightp=1 / keyint=250 / keyint_min=25 / scenecut=40 / intra_refresh=0 / rc_lookahead=10 / rc=crf / mbtree=1 / crf=25.0 / qcomp=0.60 / qpmin=0 / qpmax=69 / qpstep=4 / vbv_maxrate=20000 / vbv_bufsize=25000 / crf_max=0.0 / nal_hrd=none / filler=0 / ip_ratio=1.40 / aq=1:1.00
Encoded date : UTC 2016-06-19 18:12:25
Tagged date : UTC 2016-06-19 18:12:25
Color primaries : BT.709-5, BT.1361, IEC 61966-2-4, SMPTE RP177
Transfer characteristics : BT.709-5, BT.1361
Matrix coefficients : BT.709-5, BT.1361, IEC 61966-2-4 709, SMPTE RP177

Audio
ID : 2
Format : AAC
Format/Info : Advanced Audio Codec
Format profile : LC
Codec ID : 40
Duration : 1h 25mn
Bit rate mode : Variable
Bit rate : 160 Kbps
Channel(s) : 2 channels
Channel positions : Front: L R
Sampling rate : 48.0 KHz
Compression mode : Lossy
Stream size : 97.6 MiB (18%)
Title : Stereo
Encoded date : UTC 2016-06-19 18:12:25
Tagged date : UTC 2016-06-19 18:12:25
Screenshots

The Sacred City (2016)

The Sacred City (2016)

The Sacred City (2016)

The Sacred City (2016)

The Sacred City (2016)

Welcome to my blog - daily update!

The Sacred City (2016)