The Secret Daughter S02E01-02

Posted By: Tavaz
720p (HD) / WEBRip IMDb
The Secret Daughter S02E01-02

The Secret Daughter S02E01-02
H264 | MKV | 1280x720 | English | H264 @ 2345 kbps | AC-3 @ 384 kbps | 44 min 36 s | 889 MiB
Genre: Drama

Finding herself in hot water with the local hood, Billie pretends to be the secret daughter of Jack Norton in order to escape town, which suddenly lands her in the middle of a grieving family.



the.secret.daughter.s02e01.720p.hdtv.x264-w4f.mkv (888.7 MB)



General
Unique ID : 200894422299332892240355571944623774040 (0x9722DBBD4330CDE3961BF18EA2A51958)
Complete name : ./the.secret.daughter.s02e01.720p.hdtv.x264-w4f.mkv
Format : Matroska
Format version : Version 4 / Version 2
File size : 889 MiB
Duration : 44 min 36 s
Overall bit rate : 2 785 kb/s
Encoded date : UTC 2017-11-08 14:14:55
Writing application : mkvmerge v6.3.0 ('You can't stop me!') built on Jun 28 2013 20:09:41
Writing library : libebml v1.3.0 + libmatroska v1.4.0

Video
ID : 1
Format : AVC
Format/Info : Advanced Video Codec
Format profile : High@L4.1
Format settings : CABAC / 5 Ref Frames
Format settings, CABAC : Yes
Format settings, RefFrames : 5 frames
Codec ID : V_MPEG4/ISO/AVC
Duration : 44 min 36 s
Bit rate : 2 345 kb/s
Width : 1 280 pixels
Height : 720 pixels
Display aspect ratio : 16:9
Frame rate mode : Constant
Frame rate : 25.000 FPS
Color space : YUV
Chroma subsampling : 4:2:0
Bit depth : 8 bits
Scan type : Progressive
Bits/(Pixel*Frame) : 0.102
Stream size : 748 MiB (84%)
Writing library : x264 core 152 r2851 ba24899
Encoding settings : cabac=1 / ref=5 / deblock=1:0:0 / analyse=0x3:0x113 / me=hex / subme=8 / psy=1 / psy_rd=1.00:0.00 / mixed_ref=1 / me_range=16 / chroma_me=1 / trellis=2 / 8x8dct=1 / cqm=0 / deadzone=21,11 / fast_pskip=1 / chroma_qp_offset=-2 / threads=6 / lookahead_threads=1 / sliced_threads=0 / nr=0 / decimate=1 / interlaced=0 / bluray_compat=0 / constrained_intra=0 / bframes=3 / b_pyramid=2 / b_adapt=1 / b_bias=0 / direct=3 / weightb=1 / open_gop=0 / weightp=2 / keyint=250 / keyint_min=25 / scenecut=40 / intra_refresh=0 / rc_lookahead=50 / rc=crf / mbtree=1 / crf=18.0 / qcomp=0.60 / qpmin=0 / qpmax=69 / qpstep=4 / ip_ratio=1.40 / aq=1:1.00
Default : Yes
Forced : No
Color range : Limited
Matrix coefficients : BT.709

Audio
ID : 2
Format : AC-3
Format/Info : Audio Coding 3
Format settings, Endianness : Big
Codec ID : A_AC3
Duration : 44 min 36 s
Bit rate mode : Constant
Bit rate : 384 kb/s
Channel(s) : 2 channels
Channel positions : Front: L R
Sampling rate : 48.0 kHz
Frame rate : 31.250 FPS (1536 SPF)
Bit depth : 16 bits
Compression mode : Lossy
Stream size : 123 MiB (14%)
Service kind : Complete Main
Default : Yes
Forced : No





The Secret Daughter S02E01-02


The Secret Daughter S02E01-02


The Secret Daughter S02E01-02


The Secret Daughter S02E01-02


The Secret Daughter S02E01-02

All episodes