Tags
Language
Tags

The Wedding Video (2012)

Posted By: Tavaz
720p (HD) / BDRip IMDb
The Wedding Video (2012)

The Wedding Video (2012)
BDRip | MKV | 1280x720 | English | H264 @ 2560 kbps | AC-3 @ 448 kbps | 1 h 33 min | 1.97 GiB
Subtitles: English
Genre: Comedy

When the rogueish but loveable Raif is asked to be his brother Tim's best man at his wedding, he decides the best present for the happy newlyweds would be to catch the entire thing on video. He returns home from abroad to find his brother is no longer the bohemian vagabond that he used to be, and is in fact marrying into a very wealthy family, and the wedding they're about to be part of will be the most outlandish and bizarre that Cheshire has ever seen… Thank the lord Raif has caught it all on tape!

a2c5578b3d86aa21a31660a2691677df.mkv (2.0 GB)



General
Unique ID : 317040273973772338178742912863104634023 (0xEE83BC584BA4B85F017B1EBFF7338CA7)
Complete name : ./a2c5578b3d86aa21a31660a2691677df.mkv
Format : Matroska
Format version : Version 4 / Version 2
File size : 1.97 GiB
Duration : 1 h 33 min
Overall bit rate : 3 008 kb/s
Movie name : The.Wedding.Video.2012.720p.BluRay.x264-x0r
Encoded date : UTC 2020-11-23 03:19:52
Writing application : mkvmerge v7.7.0 ('Six Voices') 64bit built on Mar 1 2015 01:50:05
Writing library : libebml v1.3.1 + libmatroska v1.4.2

Video
ID : 1
Format : AVC
Format/Info : Advanced Video Codec
Format profile : High@L4
Format settings : CABAC / 8 Ref Frames
Format settings, CABAC : Yes
Format settings, RefFrames : 8 frames
Codec ID : V_MPEG4/ISO/AVC
Duration : 1 h 33 min
Bit rate : 2 560 kb/s
Width : 1 280 pixels
Height : 720 pixels
Display aspect ratio : 16:9
Frame rate mode : Constant
Frame rate : 24.000 FPS
Color space : YUV
Chroma subsampling : 4:2:0
Bit depth : 8 bits
Scan type : Progressive
Bits/(Pixel*Frame) : 0.116
Stream size : 1.68 GiB (85%)
Writing library : x264 core 155 r2917 0a84d98
Encoding settings : cabac=1 / ref=8 / deblock=1:-2:-2 / analyse=0x3:0x133 / me=umh / subme=9 / psy=1 / psy_rd=1.00:0.25 / mixed_ref=1 / me_range=24 / chroma_me=1 / trellis=2 / 8x8dct=1 / cqm=0 / deadzone=21,11 / fast_pskip=1 / chroma_qp_offset=-4 / threads=22 / lookahead_threads=2 / sliced_threads=0 / nr=0 / decimate=1 / interlaced=0 / bluray_compat=0 / constrained_intra=0 / bframes=4 / b_pyramid=2 / b_adapt=2 / b_bias=0 / direct=3 / weightb=1 / open_gop=0 / weightp=2 / keyint=240 / keyint_min=24 / scenecut=40 / intra_refresh=0 / rc_lookahead=120 / rc=2pass / mbtree=1 / bitrate=2560 / ratetol=1.0 / qcomp=0.60 / qpmin=0 / qpmax=69 / qpstep=4 / cplxblur=20.0 / qblur=0.5 / vbv_maxrate=20000 / vbv_bufsize=25000 / nal_hrd=none / filler=0 / ip_ratio=1.40 / aq=1:1.00
Language : English
Default : Yes
Forced : No
Color range : Limited
Color primaries : BT.709
Transfer characteristics : BT.709
Matrix coefficients : BT.709

Audio
ID : 2
Format : AC-3
Format/Info : Audio Coding 3
Format settings, Endianness : Big
Codec ID : A_AC3
Duration : 1 h 33 min
Bit rate mode : Constant
Bit rate : 448 kb/s
Channel(s) : 6 channels
Channel positions : Front: L C R, Side: L R, LFE
Sampling rate : 48.0 kHz
Frame rate : 31.250 FPS (1536 SPF)
Bit depth : 16 bits
Compression mode : Lossy
Delay relative to video : -5 ms
Stream size : 301 MiB (15%)
Title : Surround
Language : English
Service kind : Complete Main
Default : Yes
Forced : No

Text
ID : 3
Format : UTF-8
Codec ID : S_TEXT/UTF8
Codec ID/Info : UTF-8 Plain Text
Duration : 1 h 30 min
Bit rate : 81 b/s
Count of elements : 1370
Stream size : 54.3 KiB (0%)
Language : English
Default : Yes
Forced : No

Menu
00:00:00.000 : :Chapter 1
00:07:52.292 : :Chapter 2
00:16:18.625 : :Chapter 3
00:20:59.917 : :Chapter 4
00:27:00.542 : :Chapter 5
00:36:32.333 : :Chapter 6
00:42:42.167 : :Chapter 7
00:48:37.083 : :Chapter 8
00:59:53.375 : :Chapter 9
01:06:35.208 : :Chapter 10
01:13:47.167 : :Chapter 11
01:27:43.208 : :Chapter 12





The Wedding Video (2012)


The Wedding Video (2012)


The Wedding Video (2012)


The Wedding Video (2012)


The Wedding Video (2012)