The Accountant (2016) [UPDATE]

Posted By: JohnSmith
The Accountant (2016) [UPDATE]

The Accountant (2016)
BDRip | MKV / AVC@1954 kb/s | 848x354 | 2h 7mn | 2.32 GB
Italian: AC3, 640 kb/s (6 ch) | Subtitles: Italian (forced, full)
Genre: Action | Crime | Drama | Thriller

Christian Wolff, un genio matematico che ha più affinità con i numeri che con le persone, lavora sotto copertura in un piccolo studio come contabile freelance per alcune delle più pericolose organizzazioni criminali del pianeta. Nonostante abbia la Divisione anti-crimine del Dipartimento del Tesoro alle costole, Christian accetta l'incarico di un nuovo cliente: una società di robotica dove una delle contabili ha scoperto una discrepanza nei conti di milioni di dollari. Ma non appena Christian inizia a svelare il mistero e ad avvicinarsi alla verità, il numero delle vittime inizia a crescere.

IMDB - 1 win & 4 nominations.


UPDATE: iTunes audio ––> BluRay original (studio) audio


General
Unique ID : 205973689001261255720458391325328002308 (0x9AF516EC1DAE1AC68713A0A529EBCD04)
Complete name : A:\The.Accountant.2016.BDRip.480p.iTA-DDN.mkv
Format : Matroska
Format version : Version 4 / Version 2
File size : 2.32 GiB
Duration : 2 h 7 min
Overall bit rate : 2 596 kb/s
Encoded date : UTC 2017-02-16 13:39:31
Writing application : mkvmerge v8.3.0 ('Over the Horizon') 64bit
Writing library : libebml v1.3.1 + libmatroska v1.4.2

Video
ID : 1
Format : AVC
Format/Info : Advanced Video Codec
Format profile : High@L4.1
Format settings, CABAC : Yes
Format settings, ReFrames : 5 frames
Codec ID : V_MPEG4/ISO/AVC
Duration : 2 h 7 min
Bit rate : 1 954 kb/s
Width : 848 pixels
Height : 354 pixels
Display aspect ratio : 2.40:1
Frame rate mode : Constant
Frame rate : 23.976 (24000/1001) FPS
Color space : YUV
Chroma subsampling : 4:2:0
Bit depth : 8 bits
Scan type : Progressive
Bits/(Pixel*Frame) : 0.271
Stream size : 1.75 GiB (75%)
Writing library : x264 core 148 r2705+54 9f484c1 t_mod_Custom [8-bit@all X86_64]
Encoding settings : cabac=1 / ref=5 / deblock=1:-2:-2 / analyse=0x3:0x133 / me=umh / subme=7 / psy=1 / fade_compensate=0.00 / psy_rd=1.05:0.00 / mixed_ref=1 / me_range=32 / chroma_me=1 / trellis=2 / 8x8dct=1 / cqm=0 / deadzone=21,11 / fast_pskip=0 / chroma_qp_offset=-2 / threads=11 / lookahead_threads=1 / sliced_threads=0 / nr=0 / decimate=0 / interlaced=0 / bluray_compat=0 / constrained_intra=0 / fgo=0 / bframes=3 / b_pyramid=2 / b_adapt=2 / b_bias=0 / direct=3 / weightb=1 / open_gop=0 / weightp=2 / keyint=240 / keyint_min=23 / scenecut=40 / intra_refresh=0 / rc_lookahead=40 / rc=2pass / mbtree=1 / bitrate=1954 / ratetol=1.0 / qcomp=0.65 / qpmin=0:0:0 / qpmax=69:69:69 / qpstep=4 / cplxblur=20.0 / qblur=0.5 / vbv_maxrate=50000 / vbv_bufsize=50000 / nal_hrd=none / filler=0 / ip_ratio=1.40 / aq=3:0.80 / aq-sensitivity=10.00 / aq-factor=1.00:1.00:1.00 / aq2=0 / aq3=0
Language : English
Default : Yes
Forced : No

Audio
ID : 2
Format : AC-3
Format/Info : Audio Coding 3
Mode extension : CM (complete main)
Format settings, Endianness : Big
Codec ID : A_AC3
Duration : 2 h 7 min
Bit rate mode : Constant
Bit rate : 640 kb/s
Channel(s) : 6 channels
Channel positions : Front: L C R, Side: L R, LFE
Sampling rate : 48.0 kHz
Frame rate : 31.250 FPS (1536 spf)
Compression mode : Lossy
Stream size : 585 MiB (25%)
Title : AC3 iTA
Language : Italian
Default : Yes
Forced : No

Text #1
ID : 3
Format : UTF-8
Codec ID : S_TEXT/UTF8
Codec ID/Info : UTF-8 Plain Text
Duration : 1 h 53 min
Bit rate : 0 b/s
Count of elements : 27
Stream size : 815 Bytes (0%)
Title : FORCED iTA
Language : Italian
Default : Yes
Forced : Yes

Text #2
ID : 4
Format : UTF-8
Codec ID : S_TEXT/UTF8
Codec ID/Info : UTF-8 Plain Text
Duration : 1 h 58 min
Bit rate : 55 b/s
Count of elements : 1536
Stream size : 48.5 KiB (0%)
Title : REGULAR iTA
Language : Italian
Default : No
Forced : No




Screenshots

The Accountant (2016) [UPDATE]

The Accountant (2016) [UPDATE]

The Accountant (2016) [UPDATE]