Subcategories

The Coffee Man (2016)

Posted By: JohnSmith
The Coffee Man (2016)

The Coffee Man (2016)
WEB-DL 720p | MKV / AVC@420 kb/s | 1280x718 | 1h 26mn | 2.52 GB | English: AAC, 123 kb/s (2 ch)
Genre: Documentary

THE COFFEE MAN follows Sasa from Ethiopia, the birthplace of coffee to Seattle, Washington (USA), the home of the specialty coffee movement and host of the World Barista Championship. From humble beginnings in war-torn Yugoslavia to his adopted home in Australia, Sasa Sestic's journey to the 2015 World Barista Championships is a long one. But his dedication and pursuit of excellence carries him through as do his family, his staff, coffee growers and roasters and the vendors who travel with him on this remarkable journey. THE COFFEE MAN is an intensely personal, observational documentary that will have you biting your nails, standing up and cheering; and wishing that you, too, could experience Sasa's Holy Grail: the perfect cup of coffee.




General
Unique ID : 201135050730954568340761123298714923261 (0x975133A30F8B4BEFA0DEFC09D7FD30FD)
Complete name : D:\Downloads\The.Coffee.Man.2016.720p.WEB-DL.AAC.2.0.x264.mkv
Format : Matroska
Format version : Version 4 / Version 2
File size : 2.52 GiB
Duration : 1 h 26 min
Overall bit rate : 4 146 kb/s
Encoded date : UTC 2017-07-03 16:16:15
Writing application : mkvmerge v7.2.0 ('On Every Street') 64bit built on Sep 13 2014 15:52:10
Writing library : libebml v1.3.0 + libmatroska v1.4.1

Video
ID : 2
Format : AVC
Format/Info : Advanced Video Codec
Format profile : High@L3.1
Format settings, CABAC : No
Format settings, ReFrames : 2 frames
Codec ID : V_MPEG4/ISO/AVC
Duration : 1 h 26 min
Bit rate : 4 021 kb/s
Width : 1 280 pixels
Height : 718 pixels
Display aspect ratio : 16:9
Frame rate mode : Constant
Frame rate : 23.976 FPS
Color space : YUV
Chroma subsampling : 4:2:0
Bit depth : 8 bits
Scan type : Progressive
Bits/(Pixel*Frame) : 0.182
Stream size : 2.44 GiB (97%)
Language : English
Default : Yes
Forced : No
Color range : Limited
Color primaries : BT.709
Transfer characteristics : BT.709
Matrix coefficients : BT.709

Audio
ID : 1
Format : AAC
Format/Info : Advanced Audio Codec
Format profile : LC
Codec ID : A_AAC
Duration : 1 h 26 min
Bit rate : 123 kb/s
Channel(s) : 2 channels
Channel positions : Front: L R
Sampling rate : 48.0 kHz
Frame rate : 46.875 FPS (1024 spf)
Compression mode : Lossy
Stream size : 76.7 MiB (3%)
Language : English
Default : Yes
Forced : No

Menu
00:00:00.000 : en:1
00:10:52.000 : en:2
00:22:15.000 : en:3
00:32:51.000 : en:4
00:44:14.000 : en:5
00:54:34.000 : en:6
01:05:29.000 : en:7
01:18:53.000 : en:8
01:25:00.000 : en:9




Screenshots

The Coffee Man (2016)

The Coffee Man (2016)

The Coffee Man (2016)