The Eagle Huntress (2016)

Posted By: JohnSmith
The Eagle Huntress (2016)

The Eagle Huntress (2016)
WEB-DL 720p | MKV / AVC@4005 kb/s | 1280x692 | 1h 27mn | 2.68 GB
Kazakh: AC3, 384 kb/s (6 ch) | Subtitles: English
Genre: Documentary | Adventure | Family | Sport

This spellbinding documentary follows Aisholpan, a 13-year-old nomadic Mongolian girl who is fighting to become the first female eagle hunter in twelve generations of her Kazakh family. Through breathtaking aerial cinematography and intimate verite footage, the film captures her personal journey while also addressing universal themes like female empowerment, the natural world, coming of age and the onset of modernity.

IMDB - Nominated for 1 BAFTA Film Award. Another 8 wins & 18 nominations.



General
Unique ID : 202600379188339496858091572661671755567 (0x986B69E864E6584BB917019B703CFF2F)
Complete name : D:\Downloads\The.Eagle.Huntress.2016.720p.WEB-DL.DD5.1.H.264-Coo7.mkv
Format : Matroska
Format version : Version 4 / Version 2
File size : 2.68 GiB
Duration : 1 h 27 min
Overall bit rate mode : Variable
Overall bit rate : 4 391 kb/s
Encoded date : UTC 2017-02-07 18:15:14
Writing application : mkvmerge v8.8.0 ('Wind at my back') 64bit
Writing library : libebml v1.3.3 + libmatroska v1.4.4

Video
ID : 1
Format : AVC
Format/Info : Advanced Video Codec
Format profile : High@L3.1
Format settings, CABAC : Yes
Format settings, ReFrames : 2 frames
Codec ID : V_MPEG4/ISO/AVC
Duration : 1 h 27 min
Bit rate mode : Variable
Bit rate : 4 005 kb/s
Maximum bit rate : 768 kb/s
Width : 1 280 pixels
Height : 692 pixels
Display aspect ratio : 1.85:1
Frame rate mode : Constant
Frame rate : 23.976 (23976/1000) FPS
Original frame rate : 25.000 FPS
Color space : YUV
Chroma subsampling : 4:2:0
Bit depth : 8 bits
Scan type : Progressive
Bits/(Pixel*Frame) : 0.189
Stream size : 2.44 GiB (91%)
Language : English
Default : Yes
Forced : No

Audio
ID : 2
Format : AC-3
Format/Info : Audio Coding 3
Mode extension : CM (complete main)
Format settings, Endianness : Big
Codec ID : A_AC3
Duration : 1 h 27 min
Bit rate mode : Constant
Bit rate : 384 kb/s
Channel(s) : 6 channels
Channel positions : Front: L C R, Side: L R, LFE
Sampling rate : 48.0 kHz
Frame rate : 31.250 FPS (1536 spf)
Compression mode : Lossy
Stream size : 240 MiB (9%)
Language : Kazakh
Default : Yes
Forced : No

Text
ID : 3
Format : UTF-8
Codec ID : S_TEXT/UTF8
Codec ID/Info : UTF-8 Plain Text
Duration : 1 h 27 min
Bit rate : 59 b/s
Count of elements : 839
Stream size : 38.0 KiB (0%)
Language : English
Default : Yes
Forced : No




Screenshots

The Eagle Huntress (2016)

The Eagle Huntress (2016)

The Eagle Huntress (2016)