Tags
Language
Tags

BBC - The Gene Code (2011)

Posted By: Tutorial
SD / DVDRip
BBC - The Gene Code (2011)

BBC - The Gene Code (2011)
DVDRip | 720 x 416 | .AVI/XviD @ 1536 Kbps | 5x~42mn | English AC-3 128 Kbps, 2 channels | 1.36 GB
Genre: Documentary, Science, Health-Medical

Dr Adam Rutherford takes the viewer on a rollercoaster ride as he explores the consequences of one of the biggest scientific projects of all time - the decoding of the entire human genome in 2000.

Part 1: The Book of Life
The Book of Life Adam discovers that every human carries the entire story of life on earth hidden in his or her DNA and sees how we are all linked directly to the origins of life and to the first creatures with backbones. He also investigates the implications of the fact that for much of its existence, the human race was an endangered species.
Part 2: Unlocking the Code
Adam shows how decoding the genome has led us to begin to understand the very process by which our DNA makes us different; how it makes each one of us on earth unique and influences who we are and the traits we have. He reveals how, as we try and understand the relationship between who we are and our genes, we stand at the beginning of the most exciting scientific journey of all time.

General
Complete name : The.Gene.Code.1of2.avi
Format : AVI
Format/Info : Audio Video Interleave
File size : 701 MiB
Duration : 58mn 41s
Overall bit rate : 1 671 Kbps
Writing application : VirtualDubMod 1.5.4.1 (build 2178/release)
Writing library : VirtualDubMod build 2178/release

Video
ID : 0
Format : MPEG-4 Visual
Format profile : Advanced Simple@L5
Format settings, BVOP : No
Format settings, QPel : No
Format settings, GMC : No warppoints
Format settings, Matrix : Custom
Codec ID : XVID
Codec ID/Hint : XviD
Duration : 58mn 41s
Bit rate : 1 536 Kbps
Width : 720 pixels
Height : 416 pixels
Display aspect ratio : 16:9
Frame rate : 25.000 fps
Color space : YUV
Chroma subsampling : 4:2:0
Bit depth : 8 bits
Scan type : Progressive
Compression mode : Lossy
Bits/(Pixel*Frame) : 0.205
Stream size : 645 MiB (92%)
Writing library : XviD 1.2.1 (UTC 2008-12-04)

Audio
ID : 1
Format : AC-3
Format/Info : Audio Coding 3
Mode extension : CM (complete main)
Codec ID : 2000
Duration : 58mn 41s
Bit rate mode : Constant
Bit rate : 128 Kbps
Channel(s) : 2 channels
Channel positions : Front: L R
Sampling rate : 48.0 KHz
Bit depth : 16 bits
Compression mode : Lossy
Stream size : 53.7 MiB (8%)
Alignment : Split accross interleaves
Interleave, duration : 96 ms (2.40 video frames)
Interleave, preload duration : 96 ms
Screenshots

BBC - The Gene Code (2011)

BBC - The Gene Code (2011)

BBC - The Gene Code (2011)

BBC - The Gene Code (2011)

Welcome to my blog - daily update!

BBC - The Gene Code (2011)