Tags
Language
Tags

Ah-ga-ssi / The Handmaiden (2016) [Extended Cut]

Posted By: Nedulow
1080p (FullHD) / BDRip IMDb
Ah-ga-ssi / The Handmaiden (2016) [Extended Cut]

Ah-ga-ssi / The Handmaiden (2016) [Extended Cut]
BRRip | MKV / AVC@2008 kb/s | 1008x422 | 2h 47mn
Korean: AC3, 640 kb/s (6 ch) | Subtitles: English | 3.16 GB
BDRip 720p | MKV / AVC@4131 kb/s | 1280x536 | 2h 47mn
Korean: AC3, 640 kb/s (6 ch) | Subtitles: English | 5.7 GB
BDRip 1080p | MKV / AVC@11.1 Mb/s | 1920x804 | 2h 47mn
Korean: DTS, 1509 kb/s (6 ch) | Subtitles: English | 15 GB
Genre: Drama, Erotic, Romance, Thriller

A woman is hired as a handmaiden to a Japanese heiress, but secretly she is involved in a plot to defraud her.


General
Unique ID : 244957118713692070055726089499015771121 (0xB84906668A80866C8A0210D61A35F3F1)
Complete name : C:\The.Handmaiden.2016.Extended.Cut.BRRip.mkv
Format : Matroska
Format version : Version 2
File size : 3.16 GiB
Duration : 2 h 47 min
Overall bit rate : 2 702 kb/s
Encoded date : UTC 2021-12-02 14:03:40
Writing application : mkvmerge v7.8.0 ('River Man') 32bit built on Apr 3 2015 12:11:22
Writing library : libebml v1.3.1 + libmatroska v1.4.2

Video
ID : 1
Format : AVC
Format/Info : Advanced Video Codec
Format profile : High@L4.1
Format settings : CABAC / 11 Ref Frames
Format settings, CABAC : Yes
Format settings, Reference : 11 frames
Codec ID : V_MPEG4/ISO/AVC
Duration : 2 h 47 min
Bit rate : 2 008 kb/s
Width : 1 008 pixels
Height : 422 pixels
Display aspect ratio : 2.40:1
Frame rate mode : Constant
Frame rate : 23.976 (24000/1001) FPS
Color space : YUV
Chroma subsampling : 4:2:0
Bit depth : 8 bits
Scan type : Progressive
Bits/(Pixel*Frame) : 0.197
Stream size : 2.35 GiB (74%)
Writing library : x264 core 157 r2969 d4099dd
Encoding settings : cabac=1 / ref=11 / deblock=1:-3:-2 / analyse=0x3:0x133 / me=umh / subme=11 / psy=1 / psy_rd=1.00:0.05 / mixed_ref=1 / me_range=48 / chroma_me=1 / trellis=2 / 8x8dct=1 / cqm=0 / deadzone=21,11 / fast_pskip=0 / chroma_qp_offset=-3 / threads=12 / lookahead_threads=3 / sliced_threads=0 / nr=0 / decimate=1 / interlaced=0 / bluray_compat=0 / constrained_intra=0 / bframes=11 / b_pyramid=2 / b_adapt=2 / b_bias=0 / direct=3 / weightb=1 / open_gop=0 / weightp=2 / keyint=250 / keyint_min=23 / scenecut=40 / intra_refresh=0 / rc_lookahead=60 / rc=crf / mbtree=0 / crf=17.1 / qcomp=0.60 / qpmin=0 / qpmax=69 / qpstep=4 / vbv_maxrate=50000 / vbv_bufsize=62500 / crf_max=0.0 / nal_hrd=none / filler=0 / ip_ratio=1.40 / pb_ratio=1.30 / aq=3:0.90
Language : Korean
Default : Yes
Forced : No

Audio
ID : 2
Format : AC-3
Format/Info : Audio Coding 3
Commercial name : Dolby Digital
Codec ID : A_AC3
Duration : 2 h 47 min
Bit rate mode : Constant
Bit rate : 640 kb/s
Channel(s) : 6 channels
Channel layout : L R C LFE Ls Rs
Sampling rate : 48.0 kHz
Frame rate : 31.250 FPS (1536 SPF)
Bit depth : 16 bits
Compression mode : Lossy
Stream size : 767 MiB (24%)
Language : Korean
Service kind : Complete Main
Default : Yes
Forced : No

Text
ID : 3
Format : UTF-8
Codec ID : S_TEXT/UTF8
Codec ID/Info : UTF-8 Plain Text
Language : English
Default : No
Forced : No

Menu
00:00:00.000 : en:Chapter 01
00:16:58.351 : en:Chapter 02
00:32:05.716 : en:Chapter 03
00:46:09.392 : en:Chapter 04
00:59:32.069 : en:Chapter 05
01:13:50.969 : en:Chapter 06
01:23:08.567 : en:Chapter 07
01:38:42.042 : en:Chapter 08
01:48:45.227 : en:Chapter 09
01:56:07.669 : en:Chapter 10
02:13:58.990 : en:Chapter 11
02:24:31.246 : en:Chapter 12






General
Unique ID : 185195413610480592551372975501320561689 (0x8B5356D9FA08A7B7B05C1644145EA419)
Complete name : C:\The.Handmaiden.2016.Extended.Cut.BDRip.720p.mkv
Format : Matroska
Format version : Version 2
File size : 5.70 GiB
Duration : 2 h 47 min
Overall bit rate : 4 867 kb/s
Encoded date : UTC 2021-12-02 14:06:22
Writing application : mkvmerge v7.8.0 ('River Man') 32bit built on Apr 3 2015 12:11:22
Writing library : libebml v1.3.1 + libmatroska v1.4.2

Video
ID : 1
Format : AVC
Format/Info : Advanced Video Codec
Format profile : High@L4.1
Format settings : CABAC / 9 Ref Frames
Format settings, CABAC : Yes
Format settings, Reference : 9 frames
Codec ID : V_MPEG4/ISO/AVC
Duration : 2 h 47 min
Bit rate : 4 131 kb/s
Width : 1 280 pixels
Height : 536 pixels
Display aspect ratio : 2.40:1
Frame rate mode : Constant
Frame rate : 23.976 (24000/1001) FPS
Color space : YUV
Chroma subsampling : 4:2:0
Bit depth : 8 bits
Scan type : Progressive
Bits/(Pixel*Frame) : 0.251
Stream size : 4.83 GiB (85%)
Writing library : x264 core 157 r2969 d4099dd
Encoding settings : cabac=1 / ref=9 / deblock=1:-3:-2 / analyse=0x3:0x133 / me=umh / subme=11 / psy=1 / psy_rd=1.00:0.05 / mixed_ref=1 / me_range=48 / chroma_me=1 / trellis=2 / 8x8dct=1 / cqm=0 / deadzone=21,11 / fast_pskip=0 / chroma_qp_offset=-3 / threads=12 / lookahead_threads=3 / sliced_threads=0 / nr=0 / decimate=1 / interlaced=0 / bluray_compat=0 / constrained_intra=0 / bframes=10 / b_pyramid=2 / b_adapt=2 / b_bias=0 / direct=3 / weightb=1 / open_gop=0 / weightp=2 / keyint=250 / keyint_min=23 / scenecut=40 / intra_refresh=0 / rc_lookahead=60 / rc=crf / mbtree=0 / crf=16.9 / qcomp=0.60 / qpmin=0 / qpmax=69 / qpstep=4 / vbv_maxrate=50000 / vbv_bufsize=62500 / crf_max=0.0 / nal_hrd=none / filler=0 / ip_ratio=1.40 / pb_ratio=1.30 / aq=3:0.90
Language : Korean
Default : Yes
Forced : No

Audio
ID : 2
Format : AC-3
Format/Info : Audio Coding 3
Commercial name : Dolby Digital
Codec ID : A_AC3
Duration : 2 h 47 min
Bit rate mode : Constant
Bit rate : 640 kb/s
Channel(s) : 6 channels
Channel layout : L R C LFE Ls Rs
Sampling rate : 48.0 kHz
Frame rate : 31.250 FPS (1536 SPF)
Bit depth : 16 bits
Compression mode : Lossy
Stream size : 767 MiB (13%)
Language : Korean
Service kind : Complete Main
Default : No
Forced : No

Text
ID : 3
Format : UTF-8
Codec ID : S_TEXT/UTF8
Codec ID/Info : UTF-8 Plain Text
Language : English
Default : No
Forced : No

Menu
00:00:00.000 : en:Chapter 01
00:16:58.351 : en:Chapter 02
00:32:05.716 : en:Chapter 03
00:46:09.392 : en:Chapter 04
00:59:32.069 : en:Chapter 05
01:13:50.969 : en:Chapter 06
01:23:08.567 : en:Chapter 07
01:38:42.042 : en:Chapter 08
01:48:45.227 : en:Chapter 09
01:56:07.669 : en:Chapter 10
02:13:58.990 : en:Chapter 11
02:24:31.246 : en:Chapter 12






General
Unique ID : 222083746231857819572886909436600450779 (0xA713C61165BB4D8AA20F98120AD2FEDB)
Complete name : C:\The.Handmaiden.2016.Extended.Cut.BDRip.1080p.mkv
Format : Matroska
Format version : Version 2
File size : 15.0 GiB
Duration : 2 h 47 min
Overall bit rate : 12.8 Mb/s
Encoded date : UTC 2021-12-02 13:47:37
Writing application : mkvmerge v7.8.0 ('River Man') 32bit built on Apr 3 2015 12:11:22
Writing library : libebml v1.3.1 + libmatroska v1.4.2

Video
ID : 1
Format : AVC
Format/Info : Advanced Video Codec
Format profile : High@L4.1
Format settings : CABAC / 5 Ref Frames
Format settings, CABAC : Yes
Format settings, Reference : 5 frames
Codec ID : V_MPEG4/ISO/AVC
Duration : 2 h 47 min
Bit rate : 11.1 Mb/s
Width : 1 920 pixels
Height : 804 pixels
Display aspect ratio : 2.40:1
Frame rate mode : Constant
Frame rate : 23.976 (24000/1001) FPS
Color space : YUV
Chroma subsampling : 4:2:0
Bit depth : 8 bits
Scan type : Progressive
Bits/(Pixel*Frame) : 0.299
Stream size : 12.9 GiB (86%)
Writing library : x264 core 157 r2969 d4099dd
Encoding settings : cabac=1 / ref=5 / deblock=1:-3:-3 / analyse=0x3:0x133 / me=umh / subme=11 / psy=1 / psy_rd=1.00:0.05 / mixed_ref=1 / me_range=48 / chroma_me=1 / trellis=2 / 8x8dct=1 / cqm=0 / deadzone=21,11 / fast_pskip=0 / chroma_qp_offset=-3 / threads=12 / lookahead_threads=2 / sliced_threads=0 / nr=0 / decimate=1 / interlaced=0 / bluray_compat=0 / constrained_intra=0 / bframes=9 / b_pyramid=2 / b_adapt=2 / b_bias=0 / direct=3 / weightb=1 / open_gop=0 / weightp=2 / keyint=250 / keyint_min=23 / scenecut=40 / intra_refresh=0 / rc_lookahead=60 / rc=crf / mbtree=0 / crf=17.2 / qcomp=0.60 / qpmin=0 / qpmax=69 / qpstep=4 / vbv_maxrate=50000 / vbv_bufsize=62500 / crf_max=0.0 / nal_hrd=none / filler=0 / ip_ratio=1.40 / pb_ratio=1.30 / aq=3:0.90
Language : Korean
Default : Yes
Forced : No

Audio
ID : 2
Format : DTS
Format/Info : Digital Theater Systems
Codec ID : A_DTS
Duration : 2 h 47 min
Bit rate mode : Constant
Bit rate : 1 509 kb/s
Channel(s) : 6 channels
Channel layout : C L R Ls Rs LFE
Sampling rate : 48.0 kHz
Frame rate : 93.750 FPS (512 SPF)
Bit depth : 24 bits
Compression mode : Lossy
Stream size : 1.77 GiB (12%)
Language : Korean
Default : No
Forced : No

Text
ID : 3
Format : UTF-8
Codec ID : S_TEXT/UTF8
Codec ID/Info : UTF-8 Plain Text
Language : English
Default : No
Forced : No

Menu
00:00:00.000 : en:Chapter 01
00:16:58.351 : en:Chapter 02
00:32:05.716 : en:Chapter 03
00:46:09.392 : en:Chapter 04
00:59:32.069 : en:Chapter 05
01:13:50.969 : en:Chapter 06
01:23:08.567 : en:Chapter 07
01:38:42.042 : en:Chapter 08
01:48:45.227 : en:Chapter 09
01:56:07.669 : en:Chapter 10
02:13:58.990 : en:Chapter 11
02:24:31.246 : en:Chapter 12






Screenshots BRRip

Ah-ga-ssi / The Handmaiden (2016) [Extended Cut]

Ah-ga-ssi / The Handmaiden (2016) [Extended Cut]

Ah-ga-ssi / The Handmaiden (2016) [Extended Cut]


Screenshots BDRip 720p

Ah-ga-ssi / The Handmaiden (2016) [Extended Cut]

Ah-ga-ssi / The Handmaiden (2016) [Extended Cut]

Ah-ga-ssi / The Handmaiden (2016) [Extended Cut]


Screenshots BDRip 1080p

Ah-ga-ssi / The Handmaiden (2016) [Extended Cut]

Ah-ga-ssi / The Handmaiden (2016) [Extended Cut]

Ah-ga-ssi / The Handmaiden (2016) [Extended Cut]