The Long Road Home S01E06 (2017)

Posted By: JohnSmith
720p (HD) / HDTV IMDb
The Long Road Home S01E06 (2017)

The Long Road Home S01E06 (2017)
HDTV 720p | MKV / AVC@2510 kb/s | 1280x720 | 51mn | 1.05 GB
English: AC3, 384 kb/s (6 ch) | Subtitles: English
Genre: Drama | War

American forces occupying Iraq are ambushed in a Baghdad neighborhood.




General
Unique ID : 252741169653118210698410908989142703558 (0xBE242DBE111B02B8BD4E41EDB0C59DC6)
Complete name : D:\Downloads\The.Long.Road.Home.S01E06.A.City.Called.Heaven.720p.HDTV.x264-DHD.mkv
Format : Matroska
Format version : Version 4 / Version 2
File size : 1.05 GiB
Duration : 51 min 54 s
Overall bit rate : 2 895 kb/s
Encoded date : UTC 2017-12-06 07:14:46
Writing application : mkvmerge v18.0.0 ('Apricity') 64-bit
Writing library : libebml v1.3.5 + libmatroska v1.4.8

Video
ID : 1
Format : AVC
Format/Info : Advanced Video Codec
Format profile : High@L4.1
Format settings, CABAC : Yes
Format settings, ReFrames : 5 frames
Codec ID : V_MPEG4/ISO/AVC
Duration : 51 min 54 s
Bit rate : 2 509 kb/s
Width : 1 280 pixels
Height : 720 pixels
Display aspect ratio : 16:9
Frame rate mode : Constant
Frame rate : 23.976 (24000/1001) FPS
Color space : YUV
Chroma subsampling : 4:2:0
Bit depth : 8 bits
Scan type : Progressive
Bits/(Pixel*Frame) : 0.114
Stream size : 932 MiB (87%)
Writing library : x264 core 152 r2851 ba24899
Encoding settings : cabac=1 / ref=5 / deblock=1:0:0 / analyse=0x3:0x113 / me=hex / subme=8 / psy=1 / psy_rd=1.00:0.00 / mixed_ref=1 / me_range=16 / chroma_me=1 / trellis=2 / 8x8dct=1 / cqm=0 / deadzone=21,11 / fast_pskip=1 / chroma_qp_offset=-2 / threads=12 / lookahead_threads=2 / sliced_threads=0 / nr=0 / decimate=1 / interlaced=0 / bluray_compat=0 / constrained_intra=0 / bframes=3 / b_pyramid=2 / b_adapt=1 / b_bias=0 / direct=3 / weightb=1 / open_gop=0 / weightp=2 / keyint=250 / keyint_min=23 / scenecut=40 / intra_refresh=0 / rc_lookahead=50 / rc=crf / mbtree=1 / crf=18.0 / qcomp=0.60 / qpmin=0 / qpmax=69 / qpstep=4 / ip_ratio=1.40 / aq=1:1.00
Default : Yes
Forced : No
Color range : Limited
Matrix coefficients : BT.709

Audio
ID : 2
Format : AC-3
Format/Info : Audio Coding 3
Format settings, Endianness : Big
Codec ID : A_AC3
Duration : 51 min 54 s
Bit rate mode : Constant
Bit rate : 384 kb/s
Channel(s) : 6 channels
Channel positions : Front: L C R, Side: L R, LFE
Sampling rate : 48.0 kHz
Frame rate : 31.250 FPS (1536 spf)
Bit depth : 16 bits
Compression mode : Lossy
Stream size : 143 MiB (13%)
Language : English
Service kind : Complete Main
Default : Yes
Forced : No

Text
ID : 3
Format : UTF-8
Codec ID : S_TEXT/UTF8
Codec ID/Info : UTF-8 Plain Text
Duration : 51 min 51 s
Bit rate : 52 b/s
Count of elements : 597
Stream size : 20.1 KiB (0%)
Language : English
Default : No
Forced : No




Screenshots

The Long Road Home S01E06 (2017)

The Long Road Home S01E06 (2017)

The Long Road Home S01E06 (2017)

All episodes