Tags
Language
Tags

The Mandalorian (2019) [Complete Season 1]

Posted By: Without
2160p (4k UHD) / WEB-DL IMDb
The Mandalorian (2019) [Complete Season 1]

The Mandalorian (2019)
WEB-DL 2160p | MKV | 8 x ~40 min | 8 x ~4.50 GB | 3840x2160 | HEVC@ ~15.5 Mb/s
English AC3@768 kb/s, 6 ch
Subs: Español, Français, Deutsch, Italiano, Português, Polski, Svenska
Dansk, Suomi, Nederlands, Norsk
Genre: Action | Adventure | Sci-Fi

After the stories of Jango and Boba Fett, another warrior emerges in the Star Wars universe. The Mandalorian is set after the fall of the Empire and before the emergence of the First Order. We follow the travails of a lone gunfighter in the outer reaches of the galaxy far from the authority of the New Republic.

IMDB - Top Rated TV #62 | 1 win & 9 nominations.


General
the.mandalorian.s01e01.2160p.web.h265-skgtv.mkv
Format : Matroska
Format version : Version 4 / Version 2
File size : 4.62 GB
Duration : 39 min 37 s
Overall bit rate : 16.7 Mb/s
Encoded date : UTC 2020-02-02 19:19:36
Writing application : mkvmerge v9.1.0 ('Little Earthquakes') 32bit
Writing library : libebml v1.3.3 + libmatroska v1.4.4

Video
ID : 1
Format : HEVC
Format/Info : High Efficiency Video Coding
Format profile : Main 10@L5@High
Codec ID : V_MPEGH/ISO/HEVC
Duration : 39 min 37 s
Bit rate : 15.9 Mb/s
Width : 3840 pixels
Height : 2160 pixels
Display aspect ratio : 16:9
Frame rate mode : Constant
Frame rate : 23.976 (24000/1001) FPS
Color space : YUV
Chroma subsampling : 4:2:0
Bit depth : 10 bits
Bits/(Pixel*Frame) : 0.080
Stream size : 4.41 GB (95%)
Default : Yes
Forced : No
Color range : Limited
Color primaries : BT.2020
Transfer characteristics : SMPTE ST 2084
Matrix coefficients : BT.2020 non-constant

Audio
ID : 2
Format : E-AC-3
Format/Info : Enhanced Audio Coding 3
Format settings, Endianness : Big
Codec ID : A_EAC3
Duration : 39 min 37 s
Bit rate mode : Constant
Bit rate : 768 kb/s
Channel(s) : 6 channels
Channel positions : Front: L C R, Side: L R, LFE
Sampling rate : 48.0 kHz
Frame rate : 187.500 FPS (256 spf)
Compression mode : Lossy
Stream size : 215 MB (5%)
Title : Inglés
Language : English
Default : No
Forced : No

Text #1
ID : 3
Format : UTF-8
Codec ID : S_TEXT/UTF8
Codec ID/Info : UTF-8 Plain Text
Duration : 37 min 54 s
Bit rate : 27 b/s
Count of elements : 295
Stream size : 7.53 KiB (0%)
Title : Castellano [Completos]
Language : Spanish
Default : No
Forced : No

Text #2
ID : 4
Format : UTF-8
Codec ID : S_TEXT/UTF8
Codec ID/Info : UTF-8 Plain Text
Duration : 37 min 54 s
Bit rate : 26 b/s
Count of elements : 282
Stream size : 7.31 KiB (0%)
Title : Francés [Completos]
Language : French
Default : No
Forced : No

Text #3
ID : 5
Format : UTF-8
Codec ID : S_TEXT/UTF8
Codec ID/Info : UTF-8 Plain Text
Duration : 37 min 54 s
Bit rate : 28 b/s
Count of elements : 289
Stream size : 7.81 KiB (0%)
Title : Alemán [Completos]
Language : German
Default : No
Forced : No

Text #4
ID : 6
Format : UTF-8
Codec ID : S_TEXT/UTF8
Codec ID/Info : UTF-8 Plain Text
Duration : 37 min 54 s
Bit rate : 27 b/s
Count of elements : 295
Stream size : 7.71 KiB (0%)
Title : Italiano [Completos]
Language : Italian
Default : No
Forced : No

Text #5
ID : 7
Format : UTF-8
Codec ID : S_TEXT/UTF8
Codec ID/Info : UTF-8 Plain Text
Duration : 37 min 54 s
Bit rate : 29 b/s
Count of elements : 295
Stream size : 8.09 KiB (0%)
Title : Portugués [Completos]
Language : Portuguese
Default : No
Forced : No

Text #6
ID : 8
Format : UTF-8
Codec ID : S_TEXT/UTF8
Codec ID/Info : UTF-8 Plain Text
Duration : 37 min 54 s
Bit rate : 28 b/s
Count of elements : 295
Stream size : 7.87 KiB (0%)
Title : Portugués brasileño [Completos]
Language : Portuguese
Default : No
Forced : No

Text #7
ID : 9
Format : UTF-8
Codec ID : S_TEXT/UTF8
Codec ID/Info : UTF-8 Plain Text
Duration : 38 min 19 s
Bit rate : 28 b/s
Count of elements : 296
Stream size : 7.93 KiB (0%)
Title : Polaco [Completos]
Language : Polish
Default : No
Forced : No

Text #8
ID : 10
Format : UTF-8
Codec ID : S_TEXT/UTF8
Codec ID/Info : UTF-8 Plain Text
Duration : 37 min 53 s
Bit rate : 27 b/s
Count of elements : 227
Stream size : 7.53 KiB (0%)
Title : Sueco [Completos]
Language : Swedish
Default : No
Forced : No

Text #9
ID : 11
Format : UTF-8
Codec ID : S_TEXT/UTF8
Codec ID/Info : UTF-8 Plain Text
Duration : 37 min 54 s
Bit rate : 28 b/s
Count of elements : 234
Stream size : 7.81 KiB (0%)
Title : Danés [Completos]
Language : Danish
Default : No
Forced : No

Text #10
ID : 12
Format : UTF-8
Codec ID : S_TEXT/UTF8
Codec ID/Info : UTF-8 Plain Text
Duration : 38 min 19 s
Bit rate : 26 b/s
Count of elements : 296
Stream size : 7.49 KiB (0%)
Title : Finés [Completos]
Language : Finnish
Default : No
Forced : No

Text #11
ID : 13
Format : UTF-8
Codec ID : S_TEXT/UTF8
Codec ID/Info : UTF-8 Plain Text
Duration : 37 min 54 s
Bit rate : 28 b/s
Count of elements : 237
Stream size : 7.96 KiB (0%)
Title : Holandés [Completos]
Language : Dutch
Default : No
Forced : No

Text #12
ID : 14
Format : UTF-8
Codec ID : S_TEXT/UTF8
Codec ID/Info : UTF-8 Plain Text
Duration : 37 min 54 s
Bit rate : 24 b/s
Count of elements : 295
Stream size : 6.81 KiB (0%)
Title : Noruego [Completos]
Language : Norwegian
Default : No
Forced : No



Screenshots

The Mandalorian (2019) [Complete Season 1]

The Mandalorian (2019) [Complete Season 1]

The Mandalorian (2019) [Complete Season 1]

The Mandalorian (2019) [Complete Season 1]

The Mandalorian (2019) [Complete Season 1]

The Mandalorian (2019) [Complete Season 1]

The Mandalorian (2019) [Complete Season 1]


Come Visit My Blog (•‿•)