The Model (2016)

Posted By: JohnSmith
The Model (2016)

The Model (2016)
BRRip | MKV / AVC@1567 kb/s | 720x390 | 1h 48mn | 1.53 GB | English: AC3, 448 kb/s (6 ch)
Genre: Drama

THE MODEL tells the story of emerging fashion model Emma who struggles to enter the Parisian fashion scene and develops a dangerous obsession for male fashion photographer Shane White.

IMDB - 1 win & 1 nomination.



General
Complete name : D:\Downloads\The.Model.2016.BRRip.XviD.AC3-RARBG\The.Model.2016.BRRip.XviD.AC3-RARBG.avi
Format : AVI
Format/Info : Audio Video Interleave
File size : 1.53 GiB
Duration : 1h 48mn
Overall bit rate : 2 025 Kbps
Movie name : RARBG.COM - The.Model.2016.BRRip.XviD.AC3-RARBG
Writing application : Lavf56.40.101
Writing library : VirtualDub build 35491/release
Comment : RARBG.COM - The.Model.2016.BRRip.XviD.AC3-RARBG

Video
ID : 0
Format : MPEG-4 Visual
Format profile : Simple@L5
Format settings, BVOP : No
Format settings, QPel : No
Format settings, GMC : No warppoints
Format settings, Matrix : Default (H.263)
Codec ID : XVID
Codec ID/Hint : XviD
Duration : 1h 48mn
Bit rate : 1 567 Kbps
Width : 720 pixels
Height : 390 pixels
Display aspect ratio : 1.85:1
Frame rate : 24.000 fps
Color space : YUV
Chroma subsampling : 4:2:0
Bit depth : 8 bits
Scan type : Progressive
Compression mode : Lossy
Bits/(Pixel*Frame) : 0.233
Stream size : 1.18 GiB (77%)
Writing library : Lavc56.60.100

Audio
ID : 1
Format : AC-3
Format/Info : Audio Coding 3
Mode extension : CM (complete main)
Format settings, Endianness : Big
Codec ID : 2000
Duration : 1h 48mn
Bit rate mode : Constant
Bit rate : 448 Kbps
Channel(s) : 6 channels
Channel positions : Front: L C R, Side: L R, LFE
Sampling rate : 48.0 KHz
Compression mode : Lossy
Stream size : 346 MiB (22%)
Alignment : Aligned on interleaves
Interleave, duration : 42 ms (1.00 video frame)
Interleave, preload duratio : 512 ms




Screenshots

The Model (2016)

The Model (2016)

The Model (2016)