The Model (2016)

Posted By: JohnSmith
The Model (2016)

The Model (2016)
BDRip | MKV / AVC@2240 kb/s | 848x460 | 1h 48mn | 2.17 GB
Italian: AC3, 640 kb/s (6 ch) | Subtitles: Italian (forced, full)
Genre: Drama

Emma (Maria Palm), top model che lotta per entrare nella scena della moda parigina, sviluppa un'ossessione fatale per il fotografo Shane White (Ed Skrein).

IMDB - 1 win & 1 nomination.



General
Unique ID : 184632331582311226055385315404800071379 (0x8AE6E4C399F5EAD9ADCCC4CFFC5416D3)
Complete name : A:\The.Model.2016.iTA.BDRip.mkv
Format : Matroska
Format version : Version 4 / Version 2
File size : 2.17 GiB
Duration : 1 h 48 min
Overall bit rate : 2 882 kb/s
Encoded date : UTC 2017-02-08 14:46:07
Writing application : mkvmerge v8.3.0 ('Over the Horizon') 64bit
Writing library : libebml v1.3.1 + libmatroska v1.4.2

Video
ID : 1
Format : AVC
Format/Info : Advanced Video Codec
Format profile : High@L4.1
Format settings, CABAC : Yes
Format settings, ReFrames : 5 frames
Codec ID : V_MPEG4/ISO/AVC
Duration : 1 h 48 min
Bit rate : 2 240 kb/s
Width : 848 pixels
Height : 460 pixels
Display aspect ratio : 1.85:1
Frame rate mode : Constant
Frame rate : 24.000 FPS
Color space : YUV
Chroma subsampling : 4:2:0
Bit depth : 8 bits
Scan type : Progressive
Bits/(Pixel*Frame) : 0.239
Stream size : 1.69 GiB (78%)
Writing library : x264 core 148 r2721 72d53ab
Language : English
Default : Yes
Forced : No

Audio
ID : 2
Format : AC-3
Format/Info : Audio Coding 3
Mode extension : CM (complete main)
Format settings, Endianness : Big
Codec ID : A_AC3
Duration : 1 h 48 min
Bit rate mode : Constant
Bit rate : 640 kb/s
Channel(s) : 6 channels
Channel positions : Front: L C R, Side: L R, LFE
Sampling rate : 48.0 kHz
Frame rate : 31.250 FPS (1536 spf)
Compression mode : Lossy
Stream size : 494 MiB (22%)
Title : AC3 iTA
Language : Italian
Default : Yes
Forced : No

Text #1
ID : 3
Format : UTF-8
Codec ID : S_TEXT/UTF8
Codec ID/Info : UTF-8 Plain Text
Duration : 15 min 18 s
Bit rate : 2 b/s
Count of elements : 5
Stream size : 249 Bytes (0%)
Title : FORCED iTA
Language : Italian
Default : Yes
Forced : Yes

Text #2
ID : 4
Format : UTF-8
Codec ID : S_TEXT/UTF8
Codec ID/Info : UTF-8 Plain Text
Duration : 1 h 41 min
Bit rate : 31 b/s
Count of elements : 849
Stream size : 23.4 KiB (0%)
Title : REGULAR iTA
Language : Italian
Default : No
Forced : No




Screenshots

The Model (2016)

The Model (2016)

The Model (2016)