Tags
Language
Tags

The One and Only Dick Gregory (2021)

Posted By: Tutorial
1080p (FullHD) / WEBRip IMDb
The One and Only Dick Gregory (2021)

The One and Only Dick Gregory (2021)
1080p WEBRip | 1920 x 1080 | .MP4/AVC @ 2328 Kbps | 1 h 53 min | English AAC 224 Kbps, 2 ch | 2.16 GB
WEBRip | 720 x 400 | .MP4/AVC @ 1100 Kbps | 1 h 53 min | English AAC 256 Kbps, 2 ch | 1.08 GB
Genre: Documentary

DChronicles the incredible life and times of legendary comedian and activist Dick Gregory.

General
Complete name : The.One.and.Only.Dick.Gregory.2021.1080p.WEBRip.x264.mp4
Format : MPEG-4
Format profile : Base Media
Codec ID : isom (isom/iso2/avc1/mp41)
File size : 2.16 GiB
Duration : 1 h 53 min
Overall bit rate : 2 729 kb/s
Encoded date : UTC 2021-07-04 14:44:06
Tagged date : UTC 2021-07-04 14:44:06

Video
ID : 1
Format : AVC
Format/Info : Advanced Video Codec
Format profile : High@L4.1
Format settings : CABAC / 4 Ref Frames
Format settings, CABAC : Yes
Format settings, RefFrames : 4 frames
Codec ID : avc1
Codec ID/Info : Advanced Video Coding
Duration : 1 h 53 min
Bit rate : 2 328 kb/s
Width : 1 920 pixels
Height : 1 080 pixels
Display aspect ratio : 16:9
Frame rate mode : Constant
Frame rate : 23.976 (23976/1000) FPS
Color space : YUV
Chroma subsampling : 4:2:0
Bit depth : 8 bits
Scan type : Progressive
Bits/(Pixel*Frame) : 0.047
Stream size : 1.84 GiB (85%)
Encoded date : UTC 2021-07-04 14:44:06
Tagged date : UTC 2021-07-04 14:44:06

General
Complete name :The.One.and.Only.Dick.Gregory.2021.WEBRip.x264-ION10.mp4
Format : MPEG-4
Format profile : Base Media
Codec ID : isom (isom/iso2/avc1/mp41)
File size : 1.08 GiB
Duration : 1 h 53 min
Overall bit rate : 1 361 kb/s
Encoded date : UTC 2021-07-04 12:24:07
Tagged date : UTC 2021-07-04 12:24:07

Video
ID : 1
Format : AVC
Format/Info : Advanced Video Codec
Format profile : High@L3.1
Format settings : CABAC / 5 Ref Frames
Format settings, CABAC : Yes
Format settings, RefFrames : 5 frames
Codec ID : avc1
Codec ID/Info : Advanced Video Coding
Duration : 1 h 53 min
Bit rate : 1 301 kb/s
Width : 720 pixels
Height : 400 pixels
Display aspect ratio : 16:9
Frame rate mode : Constant
Frame rate : 23.976 (24000/1001) FPS
Color space : YUV
Chroma subsampling : 4:2:0
Bit depth : 8 bits
Scan type : Progressive
Bits/(Pixel*Frame) : 0.188
Stream size : 1.03 GiB (96%)
Language : English
Encoded date : UTC 2021-07-04 12:24:07
Tagged date : UTC 2021-07-04 12:24:07
Screenshots 1080p WEBRip

The One and Only Dick Gregory (2021)

Screenshots WEBRip

The One and Only Dick Gregory (2021)

Welcome to my blog - daily update!

The One and Only Dick Gregory (2021)