Tags
Language
Tags

The Reunited States (2021)

Posted By: Tutorial
1080p (FullHD) / WEBRip IMDb
The Reunited States (2021)

The Reunited States (2021)
1080p WEBRip | 1920 x 1080 | .MKV/AVC @ 8466 Kbps | 1 h 25 min | English E-AC-3 640 Kbps, 6 ch | 5.53 GB
720p WEBRip | 1280 x 720 | .MKV/AVC @ 4506 Kbps | 1 h 25 min | English E-AC-3 640 Kbps, 6 ch | 3.12 GB
Genre: Documentary / Subs: English

The Reunited States is a feature documentary that profiles people who have dedicated their lives to promoting depolarization and de-escalation of our tensions across the political divide.

General
Unique ID : 13000151644271668191107267389391631454 (0x9C7BCF64E46E36FD8A3C93AECC7F45E)
Complete name : The.Reunited.States.2021.1080p.WEB.mkv
Format : Matroska
Format version : Version 4 / Version 2
File size : 5.53 GiB
Duration : 1 h 25 min
Overall bit rate : 9 291 kb/s
Writing application : mkvmerge v52.0.0 ('Secret For The Mad') 64-bit
Writing library : libebml v1.4.1 + libmatroska v1.6.2

Video
ID : 1
Format : AVC
Format/Info : Advanced Video Codec
Format profile : High@L4
Format settings : CABAC / 4 Ref Frames
Format settings, CABAC : Yes
Format settings, RefFrames : 4 frames
Codec ID : V_MPEG4/ISO/AVC
Duration : 1 h 25 min
Bit rate mode : Constant
Bit rate : 8 466 kb/s
Nominal bit rate : 10 000 kb/s
Width : 1 920 pixels
Height : 1 080 pixels
Display aspect ratio : 16:9
Frame rate mode : Constant
Frame rate : 23.976 (24000/1001) FPS
Color space : YUV
Chroma subsampling : 4:2:0
Bit depth : 8 bits
Scan type : Progressive
Bits/(Pixel*Frame) : 0.170
Stream size : 5.04 GiB (91%)
Default : Yes
Forced : No
Color range : Limited
Color primaries : BT.709
Transfer characteristics : BT.709
Matrix coefficients : BT.709
Statistics Tags Issue : mkvmerge v52.0.0 ('Secret For The Mad') 64-bit 2021-06-04 15:28:27 / mkvmerge v52.0.0 ('Secret For The Mad') 64-bit
FromStats_BitRate : 8648966
FromStats_Duration : 01:25:12.358000000
FromStats_FrameCount : 122574
FromStats_StreamSize : 5527076837

Audio
ID : 2
Format : E-AC-3
Format/Info : Enhanced Audio Coding 3
Codec ID : A_EAC3
Duration : 1 h 25 min
Bit rate mode : Constant
Bit rate : 640 kb/s
Channel(s) : 6 channels
Channel positions : Front: L C R, Side: L R, LFE
Sampling rate : 48.0 kHz
Frame rate : 187.500 FPS (256 SPF)
Compression mode : Lossy
Stream size : 390 MiB (7%)
Title : English
Language : English
Service kind : Complete Main
Default : Yes
Forced : No
Statistics Tags Issue : mkvmerge v52.0.0 ('Secret For The Mad') 64-bit 2021-06-04 15:28:27 / mkvmerge v52.0.0 ('Secret For The Mad') 64-bit
FromStats_BitRate : 640000
FromStats_Duration : 01:25:12.384000000
FromStats_FrameCount : 159762
FromStats_StreamSize : 408990720

Text
ID : 3
Format : UTF-8
Codec ID : S_TEXT/UTF8
Codec ID/Info : UTF-8 Plain Text
Title : English (SDH)
Language : English
Default : No
Forced : No
Statistics Tags Issue : mkvmerge v52.0.0 ('Secret For The Mad') 64-bit 2021-06-04 15:28:27 / mkvmerge v52.0.0 ('Secret For The Mad') 64-bit
FromStats_BitRate : 96
FromStats_Duration : 01:25:05.642000000
FromStats_FrameCount : 1884
FromStats_StreamSize : 61738

General
Unique ID : 107674910717795051634727127155133524875 (0x51016EF89D6A468EE749D0DFB6CE2B8B)
Complete name : The.Reunited.States.2021.720p.WEB.mkv
Format : Matroska
Format version : Version 4 / Version 2
File size : 3.12 GiB
Duration : 1 h 25 min
Overall bit rate : 5 250 kb/s
Writing application : mkvmerge v52.0.0 ('Secret For The Mad') 64-bit
Writing library : libebml v1.4.1 + libmatroska v1.6.2

Video
ID : 1
Format : AVC
Format/Info : Advanced Video Codec
Format profile : High@L3.1
Format settings : CABAC / 4 Ref Frames
Format settings, CABAC : Yes
Format settings, RefFrames : 4 frames
Codec ID : V_MPEG4/ISO/AVC
Duration : 1 h 25 min
Bit rate mode : Constant
Bit rate : 4 506 kb/s
Nominal bit rate : 6 000 kb/s
Width : 1 280 pixels
Height : 720 pixels
Display aspect ratio : 16:9
Frame rate mode : Constant
Frame rate : 23.976 (24000/1001) FPS
Color space : YUV
Chroma subsampling : 4:2:0
Bit depth : 8 bits
Scan type : Progressive
Bits/(Pixel*Frame) : 0.204
Stream size : 2.68 GiB (86%)
Default : Yes
Forced : No
Color range : Limited
Color primaries : BT.709
Transfer characteristics : BT.709
Matrix coefficients : BT.709
Statistics Tags Issue : mkvmerge v52.0.0 ('Secret For The Mad') 64-bit 2021-06-04 15:32:29 / mkvmerge v52.0.0 ('Secret For The Mad') 64-bit
FromStats_BitRate : 4608095
FromStats_Duration : 01:25:12.358000000
FromStats_FrameCount : 122574
FromStats_StreamSize : 2944779125

Audio
ID : 2
Format : E-AC-3
Format/Info : Enhanced Audio Coding 3
Codec ID : A_EAC3
Duration : 1 h 25 min
Bit rate mode : Constant
Bit rate : 640 kb/s
Channel(s) : 6 channels
Channel positions : Front: L C R, Side: L R, LFE
Sampling rate : 48.0 kHz
Frame rate : 187.500 FPS (256 SPF)
Compression mode : Lossy
Stream size : 390 MiB (12%)
Title : English
Language : English
Service kind : Complete Main
Default : Yes
Forced : No
Statistics Tags Issue : mkvmerge v52.0.0 ('Secret For The Mad') 64-bit 2021-06-04 15:32:29 / mkvmerge v52.0.0 ('Secret For The Mad') 64-bit
FromStats_BitRate : 640000
FromStats_Duration : 01:25:12.384000000
FromStats_FrameCount : 159762
FromStats_StreamSize : 408990720

Text
ID : 3
Format : UTF-8
Codec ID : S_TEXT/UTF8
Codec ID/Info : UTF-8 Plain Text
Title : English (SDH)
Language : English
Default : No
Forced : No
Statistics Tags Issue : mkvmerge v52.0.0 ('Secret For The Mad') 64-bit 2021-06-04 15:32:29 / mkvmerge v52.0.0 ('Secret For The Mad') 64-bit
FromStats_BitRate : 96
FromStats_Duration : 01:25:05.642000000
FromStats_FrameCount : 1884
FromStats_StreamSize : 61738
Screenshots 1080p WEBRip

The Reunited States (2021)

Screenshots 720p WEBRip

The Reunited States (2021)

Welcome to my blog - daily update!

The Reunited States (2021)