The Truth About Alcohol (2016)

Posted By: Tutorial
The Truth About Alcohol (2016)

The Truth About Alcohol (2016)
WEBRip | 1920 x 1080 | .MKV/AVC @ 5620 Kbps | 58 min 18 s | English E-AC-3 128 Kbps, 2 channels | 2.34 GB
Subs: English, Danish, Greek, Spanish, Finnish, Dutch, Polish, Portuguese, Romanian, Swedish, Turkish
Genre: Documentary

A&E doctor Javid Abdelmoneim is on a mission to find out the truth about alcohol, including why the government cut the recommended weekly limit for men by a third in January.
Director: David Briggs
Stars: Javid Abdelmoneim, Matthew Mitchell, Gautam Mehta

More info: IMDB

General
Unique ID : 178113328075031961470444419348416493971 (0x85FF611379A351CA98AEA5F370E4F993)
Complete name : The.Truth.About.Alcohol.2016.mkv
Format : Matroska
Format version : Version 4 / Version 2
File size : 2.34 GiB
Duration : 58 min 18 s
Overall bit rate mode : Variable
Overall bit rate : 5 735 kb/s
Encoded date : UTC 2017-08-17 05:57:13
Writing application : mkvmerge v13.0.0 ('The Juggler') 64bit
Writing library : libebml v1.3.4 + libmatroska v1.4.5

Video
ID : 1
Format : AVC
Format/Info : Advanced Video Codec
Format profile : Main@L4
Format settings, CABAC : Yes
Format settings, ReFrames : 3 frames
Codec ID : V_MPEG4/ISO/AVC
Duration : 58 min 18 s
Bit rate mode : Variable
Bit rate : 5 620 kb/s
Maximum bit rate : 8 430 kb/s
Width : 1 920 pixels
Height : 1 080 pixels
Display aspect ratio : 16:9
Frame rate mode : Constant
Frame rate : 25.000 FPS
Color space : YUV
Chroma subsampling : 4:2:0
Bit depth : 8 bits
Scan type : Progressive
Bits/(Pixel*Frame) : 0.108
Stream size : 2.28 GiB (98%)
Writing library : x264 core 118
Encoding settings : cabac=1 / ref=3 / deblock=1:0:0 / analyse=0x1:0x111 / me=umh / subme=10 / psy=1 / psy_rd=1.00:0.00 / mixed_ref=1 / me_range=24 / chroma_me=1 / trellis=2 / 8x8dct=0 / cqm=0 / deadzone=21,11 / fast_pskip=1 / chroma_qp_offset=-2 / threads=8 / sliced_threads=0 / nr=0 / decimate=1 / interlaced=0 / bluray_compat=0 / constrained_intra=0 / bframes=2 / b_pyramid=0 / b_adapt=2 / b_bias=0 / direct=3 / weightb=1 / open_gop=0 / weightp=2 / keyint=50 / keyint_min=26 / scenecut=0 / intra_refresh=0 / rc_lookahead=0 / rc=2pass / mbtree=1 / bitrate=5620 / ratetol=1.0 / qcomp=0.50 / qpmin=6 / qpmax=51 / qpstep=4 / cplxblur=20.0 / qblur=0.5 / vbv_maxrate=8430 / vbv_bufsize=11240 / nal_hrd=vbr / ip_ratio=1.40 / aq=1:1.00
Default : Yes
Forced : No

Audio
ID : 2
Format : E-AC-3
Format/Info : Enhanced Audio Coding 3
Format settings, Endianness : Big
Codec ID : A_EAC3
Duration : 58 min 18 s
Bit rate mode : Constant
Bit rate : 128 kb/s
Channel(s) : 2 channels
Channel positions : Front: L R
Sampling rate : 48.0 kHz
Frame rate : 187.500 FPS (256 spf)
Compression mode : Lossy
Stream size : 53.4 MiB (2%)
Language : English
Service kind : Complete Main
Default : Yes
Forced : No

Text #1
ID : 3
Format : UTF-8
Codec ID : S_TEXT/UTF8
Codec ID/Info : UTF-8 Plain Text
Duration : 57 min 30 s
Bit rate : 120 b/s
Count of elements : 1180
Stream size : 50.8 KiB (0%)
Title : SDH
Language : English
Default : No
Forced : No

Text #2
ID : 4
Format : UTF-8
Codec ID : S_TEXT/UTF8
Codec ID/Info : UTF-8 Plain Text
Duration : 58 min 13 s
Bit rate : 108 b/s
Count of elements : 1164
Stream size : 46.2 KiB (0%)
Language : Danish
Default : No
Forced : No

Text #3
ID : 5
Format : UTF-8
Codec ID : S_TEXT/UTF8
Codec ID/Info : UTF-8 Plain Text
Duration : 58 min 13 s
Bit rate : 195 b/s
Count of elements : 1174
Stream size : 83.3 KiB (0%)
Language : Greek
Default : No
Forced : No

Text #4
ID : 6
Format : UTF-8
Codec ID : S_TEXT/UTF8
Codec ID/Info : UTF-8 Plain Text
Duration : 58 min 13 s
Bit rate : 111 b/s
Count of elements : 1174
Stream size : 47.5 KiB (0%)
Language : Spanish
Default : No
Forced : No

Text #5
ID : 7
Format : UTF-8
Codec ID : S_TEXT/UTF8
Codec ID/Info : UTF-8 Plain Text
Duration : 58 min 13 s
Bit rate : 102 b/s
Count of elements : 1157
Stream size : 43.8 KiB (0%)
Language : Finnish
Default : No
Forced : No

Text #6
ID : 8
Format : UTF-8
Codec ID : S_TEXT/UTF8
Codec ID/Info : UTF-8 Plain Text
Duration : 58 min 13 s
Bit rate : 104 b/s
Count of elements : 1163
Stream size : 44.7 KiB (0%)
Language : Norwegian Bokmal
Default : No
Forced : No

Text #7
ID : 9
Format : UTF-8
Codec ID : S_TEXT/UTF8
Codec ID/Info : UTF-8 Plain Text
Duration : 58 min 13 s
Bit rate : 108 b/s
Count of elements : 1146
Stream size : 46.3 KiB (0%)
Language : Dutch
Default : No
Forced : No

Text #8
ID : 10
Format : UTF-8
Codec ID : S_TEXT/UTF8
Codec ID/Info : UTF-8 Plain Text
Duration : 58 min 13 s
Bit rate : 109 b/s
Count of elements : 1170
Stream size : 46.8 KiB (0%)
Language : Polish
Default : No
Forced : No

Text #9
ID : 11
Format : UTF-8
Codec ID : S_TEXT/UTF8
Codec ID/Info : UTF-8 Plain Text
Duration : 58 min 13 s
Bit rate : 116 b/s
Count of elements : 1175
Stream size : 49.6 KiB (0%)
Title : Brazilian
Language : Portuguese
Default : No
Forced : No

Text #10
ID : 12
Format : UTF-8
Codec ID : S_TEXT/UTF8
Codec ID/Info : UTF-8 Plain Text
Duration : 58 min 13 s
Bit rate : 112 b/s
Count of elements : 1173
Stream size : 47.9 KiB (0%)
Language : Romanian
Default : No
Forced : No

Text #11
ID : 13
Format : UTF-8
Codec ID : S_TEXT/UTF8
Codec ID/Info : UTF-8 Plain Text
Duration : 58 min 13 s
Bit rate : 117 b/s
Count of elements : 1173
Stream size : 49.9 KiB (0%)
Language : Swedish
Default : No
Forced : No

Text #12
ID : 14
Format : UTF-8
Codec ID : S_TEXT/UTF8
Codec ID/Info : UTF-8 Plain Text
Duration : 58 min 13 s
Bit rate : 118 b/s
Count of elements : 1177
Stream size : 50.5 KiB (0%)
Language : Turkish
Default : No
Forced : No
Screenshots

The Truth About Alcohol (2016)

The Truth About Alcohol (2016)

The Truth About Alcohol (2016)

Welcome to my blog - daily update!

The Truth About Alcohol (2016)