Tags
Language
Tags

CNN - The Windsors: Inside the Royal Dynasty Series 1 (2021)

Posted By: Tutorial
1080p (FullHD) / HDTV IMDb
CNN - The Windsors: Inside the Royal Dynasty Series 1 (2021)

CNN - The Windsors: Inside the Royal Dynasty Series 1 (2021)
HDTV | 1920 x 1080 | .MP4/AVC @ 4499 Kbps | 3x~42mn | 8.23 GB
Audio: English AAC 160 Kbps, 2 channels | Subs: None
Genre: Documentary

The series tells the incredible, dramatic and emotional tale of the British Royal Family known as The Windsors. Using stunning archive and interviews with insiders and experts, the series weaves together the true story of the Windsor dynasty.

Part 1: Succession
Inside the Windsors: King of England Edward VIII during his speech at the radio announcing his abdication in December 1936 (he became duke of Windsor) Following King George's death, Prince Edward must choose between the throne and marrying Wallis Simpson.


Part 2: The Reluctant King
In the second episode, George VI is crowned King. With this new title comes the responsibility of rebuilding the prestige of the monarchy after the scandal caused by his brother King Edward VIII.


Part 3: The Young Queen
After the death of her father King George VI, a 25-year-old Princess Elizabeth becomes Queen. She faces scandals and rumors from the start involving her sister, Princess Margaret, as well as her own marriage to Prince Philip.


Part 4: Love or Duty
In episode four, Prince Charles is under pressure to find a wife and start a family as next in line to rule the Windsor dynasty. He meets Lady Diana and marries her in a grand public wedding, but privately the couple face serious issues.


Part 5: The Princess the Prince and the Press
In the fifth installment of the series, the marriage between Prince Charles and Princess Diana starts to fall apart as the Queen faces the greatest challenges of her reign. The world mourns alongside the royal family after the tragic death of Princess Diana in 1997.


Part 6: A New Generation
The six-part series concludes with a look at the lives of Prince William, Prince Harry and the future of the crown. With the marriages of Prince William to Kate Middleton and Prince Harry to Meghan Markle, a new generation reenergizes the royal brand, but in the modern media age, the pressures of being a royal are more intense than ever.

General
Complete name : The.Windsors.Inside.the.Royal.Dynasty.Series.1.1of6.Succession.mp4
Format : MPEG-4
Format profile : Base Media
Codec ID : isom (isom/iso2/avc1/mp41)
File size : 1.37 GiB
Duration : 42 min 8 s
Overall bit rate : 4 667 kb/s
Movie name : The.Windsors.Inside.the.Royal.Dynasty.Series.1.1of6.Succession.1080p.HDTV.x264.AAC..org
Performer : VideoProc
Genre : Video
Writing application : Lavf58.29.100
Comment : The.Windsors.Inside.the.Royal.Dynasty.Series.1.1of6.Succession.1080p.HDTV.x264.AAC..org

Video
ID : 1
Format : AVC
Format/Info : Advanced Video Codec
Format profile : High@L4.1
Format settings : CABAC / 4 Ref Frames
Format settings, CABAC : Yes
Format settings, RefFrames : 4 frames
Codec ID : avc1
Codec ID/Info : Advanced Video Coding
Duration : 42 min 7 s
Bit rate : 4 499 kb/s
Width : 1 920 pixels
Height : 1 080 pixels
Display aspect ratio : 16:9
Frame rate mode : Constant
Frame rate : 29.970 (30000/1001) FPS
Standard : Component
Color space : YUV
Chroma subsampling : 4:2:0
Bit depth : 8 bits
Scan type : Progressive
Bits/(Pixel*Frame) : 0.072
Stream size : 1.32 GiB (96%)
Color range : Limited

Audio
ID : 2
Format : AAC
Format/Info : Advanced Audio Codec
Format profile : LC
Codec ID : mp4a-40-2
Duration : 42 min 8 s
Bit rate mode : Constant
Bit rate : 160 kb/s
Channel(s) : 2 channels
Channel positions : Front: L R
Sampling rate : 48.0 kHz
Frame rate : 46.875 FPS (1024 SPF)
Compression mode : Lossy
Stream size : 48.3 MiB (3%)
Language : English
Default : Yes
Alternate group : 1
Screenshots

CNN - The Windsors: Inside the Royal Dynasty Series 1 (2021)

CNN - The Windsors: Inside the Royal Dynasty Series 1 (2021)

CNN - The Windsors: Inside the Royal Dynasty Series 1 (2021)

Welcome to my blog - daily update!

CNN - The Windsors: Inside the Royal Dynasty Series 1 (2021)