The Blob (1958)

Posted By: vivid23
The Blob (1958)

The Blob (1958)
Bluray-rip 720p | 1200x720 | MKV/x264 @ 4993 Kbps | 83mn | Audio: English AC3 640 kbps, 1 channels | Subs: English | 3.28 GB
Genre: Horror | Sci-Fi

A mysterious creature from another planet, resembling a giant blob of jelly, lands on earth. The people of a nearby small town refuse to listen to some teenagers who have witnessed the blob's destructive power. In the meantime, the blob just keeps on getting bigger.

More info

Video
ID : 1
Format : AVC
Format/Info : Advanced Video Codec
Format profile : High@L4.1
Format settings, CABAC : Yes
Format settings, ReFrames : 5 frames
Codec ID : V_MPEG4/ISO/AVC
Duration : 1h 23mn
Bit rate : 4 993 Kbps
Width : 1 200 pixels
Height : 720 pixels
Display aspect ratio : 1.667
Frame rate : 23.976 fps
Color space : YUV
Chroma subsampling : 4:2:0
Bit depth : 8 bits
Scan type : Progressive
Bits/(Pixel*Frame) : 0.241
Stream size : 2.84 GiB (87%)
Writing library : x264 core 129 r2245 bc13772
Encoding settings : cabac=1 / ref=5 / deblock=1:0:0 / analyse=0x3:0x133 / me=umh / subme=7 / psy=1 / psy_rd=1.00:0.00 / mixed_ref=1 / me_range=16 / chroma_me=1 / trellis=1 / 8x8dct=1 / cqm=0 / deadzone=21,11 / fast_pskip=0 / chroma_qp_offset=-2 / threads=12 / lookahead_threads=2 / sliced_threads=0 / nr=0 / decimate=1 / interlaced=0 / bluray_compat=0 / constrained_intra=0 / bframes=3 / b_pyramid=2 / b_adapt=1 / b_bias=0 / direct=1 / weightb=1 / open_gop=0 / weightp=2 / keyint=250 / keyint_min=23 / scenecut=40 / intra_refresh=0 / rc_lookahead=40 / rc=2pass / mbtree=1 / bitrate=4993 / ratetol=1.0 / qcomp=0.60 / qpmin=0 / qpmax=69 / qpstep=4 / cplxblur=20.0 / qblur=0.5 / ip_ratio=1.40 / aq=1:1.00
Language : English

Audio
ID : 2
Format : AC-3
Format/Info : Audio Coding 3
Mode extension : CM (complete main)
Codec ID : A_AC3
Duration : 1h 23mn
Bit rate mode : Constant
Bit rate : 640 Kbps
Channel(s) : 1 channel
Channel positions : Front: C
Sampling rate : 48.0 KHz
Bit depth : 16 bits
Compression mode : Lossy
Stream size : 381 MiB (11%)
Language : English

Text
ID : 3
Format : UTF-8
Codec ID : S_TEXT/UTF8
Codec ID/Info : UTF-8 Plain Text
Language : English

Menu
00:00:00.000 : en:00:00:00.000
00:02:06.918 : en:00:02:06.918
00:08:06.861 : en:00:08:06.861
00:11:56.716 : en:00:11:56.716
00:17:15.201 : en:00:17:15.201
00:18:59.513 : en:00:18:59.513
00:20:33.732 : en:00:20:33.732
00:23:29.533 : en:00:23:29.533
00:28:03.807 : en:00:28:03.807
00:31:20.712 : en:00:31:20.712
00:38:43.738 : en:00:38:43.738
00:44:22.577 : en:00:44:22.577
00:51:34.216 : en:00:51:34.216
00:56:12.578 : en:00:56:12.578
01:02:11.394 : en:01:02:11.394
01:06:19.642 : en:01:06:19.642
01:09:11.689 : en:01:09:11.689
01:12:11.160 : en:01:12:11.160
01:15:38.451 : en:01:15:38.451


The Blob (1958)

The Blob (1958)


Feel free to contact me when links are dead