Tags
Language
Tags

Travelers S01 (2016)

Posted By: JohnSmith
SD / WEB-DL IMDb
Travelers S01 (2016)

Travelers (2016)
HDRip | MP4 / AVC@~600 kb/s | 720x360 | 12x~45mn | 12x~230 MB | English: AAC, 128 kb/s (2 ch)
Genre: Sci-Fi

Hundreds of years from now, surviving humans discover how to send consciousness back through time, into people of the 21st century. These travelers assume the lives of others, while attempting to save humanity from a terrible future.




General
Complete name : D:\Downloads\Travelers.S01E01.WEB-DL.x264-RARBG\Travelers.S01E01.WEB-DL.x264-RARBG.mp4
Format : MPEG-4
Format profile : Base Media
Codec ID : isom (isom/iso2/avc1/mp41)
File size : 232 MiB
Duration : 45 min 33 s
Overall bit rate : 711 kb/s
Movie name : RARBG.COM - Travelers.S01E01.WEB-DL.x264-RARBG
Encoded date : UTC 2016-10-26 11:16:47
Tagged date : UTC 2016-10-26 11:16:47
Writing application : Lavf56.40.101
Comment : RARBG.COM - Travelers.S01E01.WEB-DL.x264-RARBG

Video
ID : 1
Format : AVC
Format/Info : Advanced Video Codec
Format profile : High@L3.1
Format settings, CABAC : Yes
Format settings, ReFrames : 5 frames
Codec ID : avc1
Codec ID/Info : Advanced Video Coding
Duration : 45 min 33 s
Bit rate : 577 kb/s
Width : 720 pixels
Height : 360 pixels
Display aspect ratio : 2.006
Frame rate mode : Constant
Frame rate : 23.976 (23976/1000) FPS
Color space : YUV
Chroma subsampling : 4:2:0
Bit depth : 8 bits
Scan type : Progressive
Bits/(Pixel*Frame) : 0.093
Stream size : 188 MiB (81%)
Title : RARBG.COM - Travelers.S01E01.WEB-DL.x264-RARBG
Writing library : x264 core 148 r2597M e86f3a1
Encoding settings : cabac=1 / ref=5 / deblock=1:-1:-1 / analyse=0x3:0x113 / me=umh / subme=9 / psy=1 / psy_rd=1.00:0.15 / mixed_ref=1 / me_range=16 / chroma_me=1 / trellis=2 / 8x8dct=1 / cqm=0 / deadzone=21,11 / fast_pskip=1 / chroma_qp_offset=-3 / threads=11 / lookahead_threads=1 / sliced_threads=0 / nr=0 / decimate=1 / interlaced=0 / bluray_compat=0 / constrained_intra=0 / bframes=3 / b_pyramid=2 / b_adapt=2 / b_bias=0 / direct=3 / weightb=1 / open_gop=0 / weightp=2 / keyint=250 / keyint_min=23 / scenecut=40 / intra_refresh=0 / rc_lookahead=50 / rc=crf / mbtree=1 / crf=19.0 / qcomp=0.60 / qpmin=0 / qpmax=69 / qpstep=4 / ip_ratio=1.40 / aq=1:1.00
Language : English
Encoded date : UTC 2016-10-26 11:16:47
Tagged date : UTC 2016-10-26 11:16:47

Audio
ID : 2
Format : AAC
Format/Info : Advanced Audio Codec
Format profile : LC
Codec ID : 40
Duration : 45 min 33 s
Bit rate mode : Constant
Bit rate : 128 kb/s
Channel(s) : 2 channels
Channel positions : Front: L R
Sampling rate : 48.0 kHz
Frame rate : 46.875 FPS (1024 spf)
Compression mode : Lossy
Stream size : 41.7 MiB (18%)
Title : RARBG.COM - Travelers.S01E01.WEB-DL.x264-RARBG
Language : English
Default : Yes
Alternate group : 1
Encoded date : UTC 2016-10-26 11:16:47
Tagged date : UTC 2016-10-26 11:16:47




Screenshots

Travelers S01 (2016)

Travelers S01 (2016)

Travelers S01 (2016)

All episodes