Tags
Language
Tags

Tsukiji Wonderland (2016)

Posted By: Tavaz
720p (HD) / BDRip IMDb
Tsukiji Wonderland (2016)

Tsukiji Wonderland (2016)
BDRip | MKV | 1280x720 | Japanese | H264 @ 4159 kbps | DTS @ 1509 kbps | 1 h 50 min | 4.37 GiB
Subtitles: English
Genre: Documentary

Spend a day at Tokyo's Tsukiji Market, the biggest wholesale seafood market in the world.

df2e80a26d88450e9b195da78fa3b2d2.mkv (4.4 GB)



General
Unique ID : 240800797880658149508925386929241969126 (0xB5288BF64E249DCE88922FDBACD1D1E6)
Complete name : ./df2e80a26d88450e9b195da78fa3b2d2.mkv
Format : Matroska
Format version : Version 4 / Version 2
File size : 4.37 GiB
Duration : 1 h 50 min
Overall bit rate : 5 669 kb/s
Encoded date : UTC 2018-02-22 21:21:42
Writing application : mkvmerge v8.3.0 ('Over the Horizon') 64bit
Writing library : libebml v1.3.1 + libmatroska v1.4.2

Video
ID : 1
Format : AVC
Format/Info : Advanced Video Codec
Format profile : High@L4.1
Format settings : CABAC / 5 Ref Frames
Format settings, CABAC : Yes
Format settings, RefFrames : 5 frames
Codec ID : V_MPEG4/ISO/AVC
Duration : 1 h 50 min
Bit rate : 4 159 kb/s
Width : 1 280 pixels
Height : 720 pixels
Display aspect ratio : 16:9
Frame rate mode : Constant
Frame rate : 23.976 (24000/1001) FPS
Color space : YUV
Chroma subsampling : 4:2:0
Bit depth : 8 bits
Scan type : Progressive
Bits/(Pixel*Frame) : 0.188
Stream size : 3.21 GiB (73%)
Writing library : x264 core 155 r2901 7d0ff22
Encoding settings : cabac=1 / ref=5 / deblock=1:-3:-3 / analyse=0x3:0x133 / me=umh / subme=9 / psy=1 / psy_rd=1.00:0.00 / mixed_ref=1 / me_range=16 / chroma_me=1 / trellis=2 / 8x8dct=1 / cqm=0 / deadzone=21,11 / fast_pskip=0 / chroma_qp_offset=-2 / threads=22 / lookahead_threads=1 / sliced_threads=0 / nr=0 / decimate=1 / interlaced=0 / bluray_compat=0 / constrained_intra=0 / bframes=3 / b_pyramid=2 / b_adapt=1 / b_bias=0 / direct=3 / weightb=1 / open_gop=0 / weightp=2 / keyint=240 / keyint_min=24 / scenecut=40 / intra_refresh=0 / rc_lookahead=50 / rc=2pass / mbtree=1 / bitrate=4159 / ratetol=1.0 / qcomp=0.60 / qpmin=0 / qpmax=69 / qpstep=4 / cplxblur=20.0 / qblur=0.5 / ip_ratio=1.40 / aq=1:1.00
Language : English
Default : Yes
Forced : No

Audio
ID : 2
Format : DTS
Format/Info : Digital Theater Systems
Mode : 16
Format settings, Endianness : Big
Codec ID : A_DTS
Duration : 1 h 50 min
Bit rate mode : Constant
Bit rate : 1 509 kb/s
Channel(s) : 6 channels
Channel positions : Front: L C R, Side: L R, LFE
Sampling rate : 48.0 kHz
Frame rate : 93.750 FPS (512 SPF)
Bit depth : 24 bits
Compression mode : Lossy
Stream size : 1.16 GiB (27%)
Language : Japanese
Default : Yes
Forced : No

Text
ID : 3
Format : UTF-8
Codec ID : S_TEXT/UTF8
Codec ID/Info : UTF-8 Plain Text
Duration : 1 h 47 min
Bit rate : 47 b/s
Count of elements : 941
Stream size : 37.1 KiB (0%)
Title : English
Language : English
Default : Yes
Forced : Yes

Menu
00:00:00.000 : en:00:00:00.000
00:11:06.249 : en:00:11:06.249
00:22:38.649 : en:00:22:38.649
00:40:58.831 : en:00:40:58.831
00:53:59.903 : en:00:53:59.903
01:10:43.614 : en:01:10:43.614
01:25:05.684 : en:01:25:05.684
01:35:49.369 : en:01:35:49.369





Tsukiji Wonderland (2016)


Tsukiji Wonderland (2016)


Tsukiji Wonderland (2016)


Tsukiji Wonderland (2016)


Tsukiji Wonderland (2016)