Tags
Language
Tags

Twin Peaks S03E03

Posted By: Tavaz
720p (HD) / BDRip IMDb
Twin Peaks S03E03

Twin Peaks S03E03
BDRip | MKV | 1280x720 | English | H264 @ 4668 kbps | AC-3 @ 640 kbps | 58 min 51 s | 2.18 GiB
Subtitles: English
Genre: Drama, Mystery, Thriller

The body of Laura Palmer is washed up on a beach near the small Washington state town of Twin Peaks. FBI Special Agent Dale Cooper is called in to investigate her strange demise only to uncover a web of mystery that ultimately leads him deep into the heart of the surrounding woodland and his very own soul.

c73ba5ebcb39413889cf2b3b1a1bac6c.mkv (2.2 GB)



General
Complete name : ./c73ba5ebcb39413889cf2b3b1a1bac6c.mkv
Format : Matroska
Format version : Version 4 / Version 2
File size : 2.18 GiB
Duration : 58 min 51 s
Overall bit rate : 5 311 kb/s
Encoded date : UTC 2010-02-22 21:41:29
Writing application : no_variable_data
Writing library : no_variable_data

Video
ID : 1
Format : AVC
Format/Info : Advanced Video Codec
Format profile : High@L4.1
Format settings : CABAC / 5 Ref Frames
Format settings, CABAC : Yes
Format settings, RefFrames : 5 frames
Codec ID : V_MPEG4/ISO/AVC
Duration : 58 min 51 s
Bit rate : 4 668 kb/s
Width : 1 280 pixels
Height : 720 pixels
Display aspect ratio : 16:9
Frame rate mode : Constant
Frame rate : 23.976 (24000/1001) FPS
Color space : YUV
Chroma subsampling : 4:2:0
Bit depth : 8 bits
Scan type : Progressive
Bits/(Pixel*Frame) : 0.211
Stream size : 1.88 GiB (86%)
Writing library : x264 core 152 r2851 ba24899
Encoding settings : cabac=1 / ref=5 / deblock=1:-3:-3 / analyse=0x3:0x113 / me=umh / subme=8 / psy=1 / psy_rd=1.00:0.00 / mixed_ref=1 / me_range=24 / chroma_me=1 / trellis=1 / 8x8dct=1 / cqm=0 / deadzone=21,11 / fast_pskip=1 / chroma_qp_offset=-2 / threads=22 / lookahead_threads=3 / sliced_threads=0 / nr=0 / decimate=1 / interlaced=0 / bluray_compat=0 / constrained_intra=0 / bframes=3 / b_pyramid=2 / b_adapt=2 / b_bias=0 / direct=3 / weightb=1 / open_gop=0 / weightp=2 / keyint=240 / keyint_min=24 / scenecut=40 / intra_refresh=0 / rc_lookahead=50 / rc=2pass / mbtree=1 / bitrate=4668 / ratetol=1.0 / qcomp=0.60 / qpmin=0 / qpmax=69 / qpstep=4 / cplxblur=20.0 / qblur=0.5 / ip_ratio=1.40 / aq=3:0.80
Default : Yes
Forced : No
Statistics Tags Issue : no_variable_data 1970-01-01 00:00:00 / no_variable_data 2010-02-22 21:41:29
FromStats_BitRate : 4668857
FromStats_Duration : 00:58:51.820000000
FromStats_FrameCount : 84679
FromStats_StreamSize : 2061195729

Audio
ID : 2
Format : AC-3
Format/Info : Audio Coding 3
Format settings, Endianness : Big
Codec ID : A_AC3
Duration : 58 min 51 s
Bit rate mode : Constant
Bit rate : 640 kb/s
Channel(s) : 6 channels
Channel positions : Front: L C R, Side: L R, LFE
Sampling rate : 48.0 kHz
Frame rate : 31.250 FPS (1536 SPF)
Bit depth : 16 bits
Compression mode : Lossy
Stream size : 269 MiB (12%)
Language : English
Service kind : Complete Main
Default : Yes
Forced : No
Statistics Tags Issue : no_variable_data 1970-01-01 00:00:00 / no_variable_data 2010-02-22 21:41:29
FromStats_BitRate : 640000
FromStats_Duration : 00:58:51.328000000
FromStats_FrameCount : 110354
FromStats_StreamSize : 282506240

Text #1
ID : 3
Format : UTF-8
Codec ID : S_TEXT/UTF8
Codec ID/Info : UTF-8 Plain Text
Language : English
Default : No
Forced : No
Statistics Tags Issue : no_variable_data 1970-01-01 00:00:00 / no_variable_data 2010-02-22 21:41:29
FromStats_BitRate : 16
FromStats_Duration : 00:52:13.756000000
FromStats_FrameCount : 273
FromStats_StreamSize : 6516

Text #2
ID : 4
Format : UTF-8
Codec ID : S_TEXT/UTF8
Codec ID/Info : UTF-8 Plain Text
Title : SDH
Language : English
Default : No
Forced : No
Statistics Tags Issue : no_variable_data 1970-01-01 00:00:00 / no_variable_data 2010-02-22 21:41:29
FromStats_BitRate : 27
FromStats_Duration : 00:58:30.841000000
FromStats_FrameCount : 554
FromStats_StreamSize : 12275

Menu
00:00:00.000 : en:00:00:00.000
00:01:39.266 : en:00:01:39.266
00:12:32.752 : en:00:12:32.752
00:19:02.141 : en:00:19:02.141
00:34:24.104 : en:00:34:24.104
00:41:28.820 : en:00:41:28.820
00:57:04.796 : en:00:57:04.796





Twin Peaks S03E03


Twin Peaks S03E03


Twin Peaks S03E03


Twin Peaks S03E03


Twin Peaks S03E03

All episodes