Tags
Language
Tags

Un Natale al Sud (2016)

Posted By: JohnSmith
Un Natale al Sud (2016)

Un Natale al Sud (2016)
DVDRip | AVI / XviD@1900 kb/s | 704x288 | 1h 25mn | 1.41 GB | Italian: AC3, 448 kb/s (6 ch)
Genre: Comedy

Il carabiniere milanese Peppino Colombo e il fioraio napoletano Ambrogio Esposito, con le mogli, Bianca e Celeste, trascorrono il Natale nella stessa località turistica di montagna al nord. Durante le vacanze, scoprono che i rispettivi figli, Riccardo e Simone, sono fidanzati con due ragazze che hanno conosciuto grazie a un sito di incontri ma che non hanno mai visto di persona. Tornati a casa, i Colombo e gli Esposito iscrivono i loro ragazzi alla festa organizzata dal sito e fanno in modo che vi partecipino anche le ragazze. Per aiutarli, decidono poi di seguirli ma a insistere sono soprattutto le mogli, che hanno altri propositi in mente.Così facendo, le due coppie metteranno in crisi le storie dei figli ma anche le loro, rischiando di tornare a casa single.




General
Complete name : A:\Un.Natale.Al.Sud.2016.iTALiAN.DVDRip.XviD-FoRaCrEw.avi
Format : AVI
Format/Info : Audio Video Interleave
File size : 1.41 GiB
Duration : 1 h 25 min
Overall bit rate : 2 357 kb/s
Movie name : Un Natale Al Sud 2016
Director : FoRaCrEw
Subject : Un Natale Al Sud 2016
Writing application : Nandub v1.0rc2
Writing library : Nandub build 1853/release
Copyright : DvdRip
Comment : ac3 6ch

Video
ID : 0
Format : MPEG-4 Visual
Format profile : Advanced Simple@L5
Format settings, BVOP : 2
Format settings, QPel : No
Format settings, GMC : No warppoints
Format settings, Matrix : Default (H.263)
Codec ID : XVID
Codec ID/Hint : XviD
Duration : 1 h 25 min
Bit rate : 1 900 kb/s
Width : 704 pixels
Height : 288 pixels
Display aspect ratio : 2.40:1
Frame rate : 25.000 FPS
Color space : YUV
Chroma subsampling : 4:2:0
Bit depth : 8 bits
Scan type : Progressive
Compression mode : Lossy
Bits/(Pixel*Frame) : 0.375
Stream size : 1.14 GiB (81%)
Writing library : XviD 67

Audio
ID : 1
Format : AC-3
Format/Info : Audio Coding 3
Mode extension : CM (complete main)
Format settings, Endianness : Big
Codec ID : 2000
Duration : 1 h 25 min
Bit rate mode : Constant
Bit rate : 448 kb/s
Channel(s) : 6 channels
Channel positions : Front: L C R, Side: L R, LFE
Sampling rate : 48.0 kHz
Frame rate : 31.250 FPS (1536 spf)
Compression mode : Lossy
Stream size : 275 MiB (19%)
Alignment : Aligned on interleaves
Interleave, duration : 40 ms (1.00 video frame)
Interleave, preload duratio : 480 ms




Screenshots

Un Natale al Sud (2016)

Un Natale al Sud (2016)

Un Natale al Sud (2016)