Underworld: Blood Wars (2016)

Posted By: Without
Underworld: Blood Wars (2016)

Underworld: Blood Wars (2016)
HDRip | AVI | 720x304 | XviD@1578 kb/s | English AC3@384 kb/s | 6 channels | 1 h 31 min | 1.26 GB
WEB-DL 720p | MKV | 1280x530 | AVC@3988 kb/s | English AC3@384 kb/s | 6 channels | 1 h 31 min | 2.86 GB
Genre: Action, Horror

Vampire death dealer, Selene (Kate Beckinsale) fights to end the eternal war between the Lycan clan and the Vampire faction that betrayed her.



General
Complete name : J:\Underworld.Blood.Wars.2017.HDRip.XviD.AC3-EVO\Underworld.Blood.Wars.2017.HDRip.XviD.AC3-EVO.avi
Format : AVI
Format/Info : Audio Video Interleave
File size : 1.26 GiB
Duration : 1 h 31 min
Overall bit rate : 1 971 kb/s
Writing library : VirtualDub build 32593/release

Video
ID : 0
Format : MPEG-4 Visual
Format profile : Advanced Simple@L5
Format settings, BVOP : 2
Format settings, QPel : No
Format settings, GMC : No warppoints
Format settings, Matrix : Default (H.263)
Muxing mode : Packed bitstream
Codec ID : XVID
Codec ID/Hint : XviD
Duration : 1 h 31 min
Bit rate : 1 578 kb/s
Width : 720 pixels
Height : 304 pixels
Display aspect ratio : 2.35:1
Frame rate : 23.976 (24000/1001) FPS
Color space : YUV
Chroma subsampling : 4:2:0
Bit depth : 8 bits
Scan type : Progressive
Compression mode : Lossy
Bits/(Pixel*Frame) : 0.301
Stream size : 1.01 GiB (80%)
Writing library : XviD 66

Audio
ID : 1
Format : AC-3
Format/Info : Audio Coding 3
Mode extension : CM (complete main)
Format settings, Endianness : Big
Codec ID : 2000
Duration : 1 h 31 min
Bit rate mode : Constant
Bit rate : 384 kb/s
Channel(s) : 6 channels
Channel positions : Front: L C R, Side: L R, LFE
Sampling rate : 48.0 kHz
Frame rate : 31.250 FPS (1536 spf)
Bit depth : 16 bits
Compression mode : Lossy
Stream size : 252 MiB (19%)
Alignment : Aligned on interleaves
Interleave, duration : 42 ms (1.00 video frame)
Interleave, preload duration : 512 ms

General
Unique ID : 225771775574485992561900881374232843787 (0xA9DA0FF40C7803D7B784545EAB0E160B)
Complete name : J:\Underworld.Blood.Wars.2017.720p.WEB-DL.H264.AC3-EVO\Underworld.Blood.Wars.2017.720p.WEB-DL.H264.AC3-EVO.mkv
Format : Matroska
Format version : Version 4 / Version 2
File size : 2.86 GiB
Duration : 1 h 31 min
Overall bit rate : 4 461 kb/s
Movie name : EVO
Encoded date : UTC 2017-02-09 00:29:26
Writing application : mkvmerge v6.7.0 ('Back to the Ground') 64bit built on Jan 8 2014 15:10:52
Writing library : libebml v1.3.0 + libmatroska v1.4.1

Video
ID : 1
Format : AVC
Format/Info : Advanced Video Codec
Format profile : Main@L3.1
Format settings, CABAC : No
Format settings, ReFrames : 2 frames
Codec ID : V_MPEG4/ISO/AVC
Duration : 1 h 31 min
Bit rate : 3 988 kb/s
Width : 1 280 pixels
Height : 530 pixels
Display aspect ratio : 2.40:1
Frame rate mode : Constant
Frame rate : 24.000 FPS
Color space : YUV
Chroma subsampling : 4:2:0
Bit depth : 8 bits
Scan type : Progressive
Bits/(Pixel*Frame) : 0.245
Stream size : 2.56 GiB (89%)
Language : English
Default : Yes
Forced : No
Color range : Limited
Color primaries : BT.709
Transfer characteristics : BT.709
Matrix coefficients : BT.709

Audio
ID : 2
Format : AC-3
Format/Info : Audio Coding 3
Mode extension : CM (complete main)
Format settings, Endianness : Big
Codec ID : A_AC3
Duration : 1 h 31 min
Bit rate mode : Constant
Bit rate : 384 kb/s
Channel(s) : 6 channels
Channel positions : Front: L C R, Side: L R, LFE
Sampling rate : 48.0 kHz
Frame rate : 31.250 FPS (1536 spf)
Bit depth : 16 bits
Compression mode : Lossy
Stream size : 252 MiB (9%)
Language : English
Default : Yes
Forced : No

Menu
00:00:00.000 : en:1
00:04:29.477 : en:2
00:09:25.022 : en:3
00:13:59.004 : en:4
00:18:55.008 : en:5
00:24:26.089 : en:6
00:31:14.956 : en:7
00:36:25.850 : en:8
00:42:16.033 : en:9
00:47:36.645 : en:10
00:52:21.304 : en:11
00:58:58.326 : en:12
01:04:30.991 : en:13
01:08:51.126 : en:14
01:13:46.129 : en:15
01:20:07.718 : en:16


HDRip Screenshots

Underworld: Blood Wars (2016)

Underworld: Blood Wars (2016)

Underworld: Blood Wars (2016)


WEB-DL 720p Screenshots

Underworld: Blood Wars (2016)

Underworld: Blood Wars (2016)

Underworld: Blood Wars (2016)


Come Visit My Blog (•‿•)