Tags
Language
Tags

VICE - Sisa: Cocaine of the Poor (2016)

Posted By: notbanned
1080p (FullHD) / HDTV
VICE - Sisa: Cocaine of the Poor (2016)

VICE - Sisa: Cocaine of the Poor (2016)
HDTV | 1920x1080 | .MKV/AVC @ 3902 Kbps | 28 min 43 s | 842 MiB
Audio: English MP2 192 kbps, 2 channels | Subs: None
Genre: Documentary

A new drug called sisa is tearing its way through Athens' poor. The ingredients are basically meth and filler things like battery acid, engine oil, shampoo, and cooking salt. It acts faster and the effects last longer than coke, and it can be produced.

General
Unique ID : 330497259283982390635289464202271503204 (0xF8A374F21BF55DD54F95A51EB261B364)
Complete name : Vice.Essentials.Cocaine.Of.The.Poor.2016.1080p.mkv
Format : Matroska
Format version : Version 4 / Version 2
File size : 842 MiB
Duration : 28 min 43 s
Overall bit rate : 4 099 kb/s

Video
ID : 1
Format : AVC
Format/Info : Advanced Video Codec
Format profile : High@L4
Format settings, CABAC : Yes
Format settings, ReFrames : 4 frames
Codec ID : V_MPEG4/ISO/AVC
Duration : 28 min 43 s
Bit rate : 3 902 kb/s
Width : 1 920 pixels
Height : 1 080 pixels
Display aspect ratio : 16:9
Frame rate mode : Variable
Frame rate : 25.000 FPS
Standard : Component
Color space : YUV
Chroma subsampling : 4:2:0
Bit depth : 8 bits
Scan type : MBAFF
Scan type, store method : Separated fields
Scan order : Top Field First
Bits/(Pixel*Frame) : 0.075
Stream size : 802 MiB (95%)
Default : Yes
Forced : No
Color range : Limited
Color primaries : BT.709
Transfer characteristics : BT.709
Matrix coefficients : BT.709

Audio
ID : 2
Format : MPEG Audio
Format version : Version 1
Format profile : Layer 2
Codec ID : A_MPEG/L2
Codec ID/Hint : MP2
Duration : 28 min 43 s
Bit rate mode : Constant
Bit rate : 192 kb/s
Channel(s) : 2 channels
Sampling rate : 48.0 kHz
Frame rate : 41.667 FPS (1152 spf)
Compression mode : Lossy
Stream size : 39.4 MiB (5%)
Language : English
Default : Yes
Forced : No


Screenshots:

VICE - Sisa: Cocaine of the Poor (2016)

VICE - Sisa: Cocaine of the Poor (2016)

VICE - Sisa: Cocaine of the Poor (2016)

VICE - Sisa: Cocaine of the Poor (2016)