Victoria's Secret Fashion Show (2016)

Posted By: Without
1080p (FullHD) / WEB-DL IMDb
Victoria's Secret Fashion Show (2016)

Victoria's Secret Fashion Show (2016)
WEB-DL 1080p | MKV | 1920x1080 | AVC@13.6 Mb/s | English AC3@640 kb/s
6 channels | 40 min 32 s | 4.05 GB
Genre: Reality-TV

The Victoria's Secret Fashion Show is an annual fashion show sponsored by Victoria's Secret, a brand of lingerie and sleepwear. Victoria's Secret uses the show to promote and market its goods in high-profile settings. The show features some of the world's leading fashion models, such as current Victoria's Secret Angels Adriana Lima, Alessandra Ambrosio, Stella Maxwell, Lais Ribeiro, Jasmine Tookes and Sara Sampaio. Behati Prinsloo and Candice Swanepoel both missed this year's show due to their pregnancies. The show featured musical performances by Lady Gaga, The Weeknd and Bruno Mars.



General
The.Victorias.Secret.Fashion.Show.2017.1080p.AMZN.WEB-DL.DDP5.1.H.264-NTb\The.Victorias.Secret.Fashion.Show.2017.1080p.AMZN.WEB-DL.DDP5.1.H.264-NTb.mkv
Format : Matroska
Format version : Version 4 / Version 2
File size : 4.05 GiB
Duration : 40 min 32 s
Overall bit rate mode : Variable
Overall bit rate : 14.3 Mb/s
Encoded date : UTC 2017-12-11 19:36:59
Writing application : mkvmerge v10.0.0 ('To Drown In You') 64bit
Writing library : libebml v1.3.4 + libmatroska v1.4.5

Video
ID : 1
Format : AVC
Format/Info : Advanced Video Codec
Format profile : High@L4
Format settings, CABAC : Yes
Format settings, ReFrames : 4 frames
Codec ID : V_MPEG4/ISO/AVC
Duration : 40 min 32 s
Bit rate mode : Variable
Bit rate : 13.6 Mb/s
Maximum bit rate : 15.0 Mb/s
Width : 1 920 pixels
Height : 1 080 pixels
Display aspect ratio : 16:9
Frame rate mode : Constant
Frame rate : 29.970 (30000/1001) FPS
Color space : YUV
Chroma subsampling : 4:2:0
Bit depth : 8 bits
Scan type : Progressive
Bits/(Pixel*Frame) : 0.220
Stream size : 3.86 GiB (96%)
Default : Yes
Forced : No
Color range : Limited
Color primaries : BT.709
Transfer characteristics : BT.709
Matrix coefficients : BT.709

Audio
ID : 2
Format : E-AC-3
Format/Info : Enhanced Audio Coding 3
Format settings, Endianness : Big
Codec ID : A_EAC3
Duration : 40 min 32 s
Bit rate mode : Constant
Bit rate : 640 kb/s
Channel(s) : 6 channels
Channel positions : Front: L C R, Side: L R, LFE
Sampling rate : 48.0 kHz
Frame rate : 187.500 FPS (256 spf)
Compression mode : Lossy
Stream size : 186 MiB (4%)
Language : English
Default : Yes
Forced : No


WEB-DL 1080p Screenshots

Victoria's Secret Fashion Show (2016)

Victoria's Secret Fashion Show (2016)

Victoria's Secret Fashion Show (2016)


Come Visit My Blog (•‿•)