Vier gegen die Bank (2016)

Posted By: Tavaz
720p (HD) / WEBRip IMDb
Vier gegen die Bank (2016)

Vier gegen die Bank (2016)
BDRip | MKV | 720x300 | German | H264 @ 826 kbps | AC-3 @ 384 kbps | 1 h 35 min | 832 MiB
Genre: Comedy, Crime

Peter (Jan Josef Liefers) ist ein Schauspieler, der noch vom Ruhm längst vergangener Tage zehrt, aber sein Kontostand nähert sich langsam dem Tiefststand. Werbeprofi Max (Matthias Schweighöfer) hat die Nase voll von seinen Chefs, will eine eigene Agentur aufmachen. Und Boxer Chris (Til Schweiger) will ein Trainingsstudio bauen, in erster Linie um seine zahlreichen Groupies zu beeindrucken. Peter, Max und Chris brauchen also Geld – doch als sich die drei online über ihre Anlagen informieren, müssen sie mit Erschrecken feststellen, dass aus ihren Aktien nichts geworden ist. Schnell ist der Sündenbock gefunden: Der verklemmte Anlageberater Tobias (Michael Bully Herbig). Aber auch Tobias ist ein Opfer – und zwar das seines Chefs Schumacher (Thomas Heinze), der ihn loswerden will und ihm deshalb wichtige Bösen-Informationen vorenthalten hat. Also schmiedet die Gruppe ungleicher Männer einen Plan, auf Kosten der Bank reich zu werden…



ho-viergegendiebank.mkv (831.9 MB)
ho-viergegendiebank-eng.sub (7.8 MB)
ho-viergegendiebank.idx (55.8 KB)
ho-viergegendiebank.sub (9.0 MB)
ho-viergegendiebank-eng.idx (50.0 KB)



General
Unique ID : 191030162923218517777970448839141327109 (0x8FB71233F85491C2B1B9F64193598105)
Complete name : ./Vier.gegen.die.Bank.2016.German.AC3.BDRip.x264-HUNTEDONES/ho-viergegendiebank.mkv
Format : Matroska
Format version : Version 4 / Version 2
File size : 832 MiB
Duration : 1 h 35 min
Overall bit rate : 1 212 kb/s
Encoded date : UTC 2017-08-23 04:56:23
Writing application : mkvmerge v7.9.0 ('Birds') 64bit
Writing library : libebml v1.3.1 + libmatroska v1.4.2

Video
ID : 1
Format : AVC
Format/Info : Advanced Video Codec
Format profile : High@L3.1
Format settings : CABAC / 5 Ref Frames
Format settings, CABAC : Yes
Format settings, RefFrames : 5 frames
Codec ID : V_MPEG4/ISO/AVC
Duration : 1 h 35 min
Bit rate : 826 kb/s
Width : 720 pixels
Height : 300 pixels
Display aspect ratio : 2.40:1
Frame rate mode : Constant
Frame rate : 23.976 (24000/1001) FPS
Color space : YUV
Chroma subsampling : 4:2:0
Bit depth : 8 bits
Scan type : Progressive
Bits/(Pixel*Frame) : 0.160
Stream size : 567 MiB (68%)
Writing library : x264 core 150 r2833 df79067
Encoding settings : cabac=1 / ref=5 / deblock=1:-1:-1 / analyse=0x3:0x113 / me=umh / subme=7 / psy=1 / psy_rd=1.00:0.15 / mixed_ref=1 / me_range=16 / chroma_me=1 / trellis=1 / 8x8dct=1 / cqm=0 / deadzone=21,11 / fast_pskip=0 / chroma_qp_offset=-3 / threads=9 / lookahead_threads=1 / sliced_threads=0 / nr=0 / decimate=1 / interlaced=0 / bluray_compat=0 / constrained_intra=0 / bframes=3 / b_pyramid=2 / b_adapt=1 / b_bias=0 / direct=1 / weightb=1 / open_gop=0 / weightp=2 / keyint=250 / keyint_min=23 / scenecut=40 / intra_refresh=0 / rc_lookahead=40 / rc=crf / mbtree=1 / crf=19.0 / qcomp=0.60 / qpmin=0 / qpmax=69 / qpstep=4 / ip_ratio=1.40 / aq=1:1.00
Language : German
Default : Yes
Forced : No

Audio
ID : 2
Format : AC-3
Format/Info : Audio Coding 3
Format settings, Endianness : Big
Codec ID : A_AC3
Duration : 1 h 35 min
Bit rate mode : Constant
Bit rate : 384 kb/s
Channel(s) : 6 channels
Channel positions : Front: L C R, Side: L R, LFE
Sampling rate : 48.0 kHz
Frame rate : 31.250 FPS (1536 SPF)
Bit depth : 16 bits
Compression mode : Lossy
Stream size : 264 MiB (32%)
Language : German
Service kind : Complete Main
Default : Yes
Forced : No

Menu
00:00:00.000 : de:00:00:00.000
00:09:38.703 : de:00:09:38.703
00:17:04.232 : de:00:17:04.232
00:25:13.721 : de:00:25:13.721
00:34:46.042 : de:00:34:46.042
00:42:16.284 : de:00:42:16.284
00:48:43.963 : de:00:48:43.963
00:56:12.953 : de:00:56:12.953
01:02:25.659 : de:01:02:25.659
01:10:42.280 : de:01:10:42.280
01:20:28.323 : de:01:20:28.323
01:27:11.184 : de:01:27:11.184





Vier gegen die Bank (2016)


Vier gegen die Bank (2016)


Vier gegen die Bank (2016)


Vier gegen die Bank (2016)


Vier gegen die Bank (2016)