WAGS S03E07

Posted By: Tavaz
720p (HD) / WEBRip IMDb
WAGS S03E07

WAGS S03E07
WEBRip | MKV | 1280x720 | English | H264 @ 2560 kbps | AAC @ 78 kbps | 1 h 26 min | 1.61 GiB

E! takes a wild ride into the world of some of today's hottest professional athletes from the perspective of the women who stand by their side, otherwise known as WAGS (Wives and Girlfriends of Sports Stars). These WAGS are playing the most competitive sport out there: getting and keeping that pro-athlete man. As part of an elite, exclusive group, the WAGS are close friends who are bound together by a strict hierarchy, unspoken rules and plenty of drama - and those who have the coveted ring and a husband with a contract are the ones with all the power! As in sports, this game is all about getting that "W" and this pack knows how to play the field…

0d7b992e063e49568345a8463956ade7.mkv (1.6 GB)



General
Complete name : ./0d7b992e063e49568345a8463956ade7.mkv
Format : Matroska
Format version : Version 4 / Version 2
File size : 1.61 GiB
Duration : 1 h 26 min
Overall bit rate : 2 654 kb/s
Encoded date : UTC 2017-12-18 05:16:27
Writing application : mkvmerge v8.8.0 ('Wind at my back') 64bit
Writing library : libebml v1.3.3 + libmatroska v1.4.4

Video
ID : 1
Format : AVC
Format/Info : Advanced Video Codec
Format profile : Main@L3.1
Format settings : CABAC / 1 Ref Frames
Format settings, CABAC : Yes
Format settings, RefFrames : 1 frame
Format settings, GOP : M=1, N=48
Codec ID : V_MPEG4/ISO/AVC
Duration : 1 h 26 min
Bit rate : 2 560 kb/s
Width : 1 280 pixels
Height : 720 pixels
Display aspect ratio : 16:9
Frame rate mode : Constant
Frame rate : 23.976 (24000/1001) FPS
Color space : YUV
Chroma subsampling : 4:2:0
Bit depth : 8 bits
Scan type : Progressive
Bits/(Pixel*Frame) : 0.116
Stream size : 1.56 GiB (97%)
Writing library : x264 core 120
Encoding settings : cabac=1 / ref=1 / deblock=1:0:0 / analyse=0x1:0x111 / me=hex / subme=6 / psy=1 / psy_rd=1.00:0.00 / mixed_ref=0 / me_range=16 / chroma_me=0 / trellis=1 / 8x8dct=0 / cqm=0 / deadzone=21,11 / fast_pskip=1 / chroma_qp_offset=-2 / threads=8 / sliced_threads=0 / nr=0 / decimate=1 / interlaced=0 / bluray_compat=0 / constrained_intra=0 / bframes=0 / weightp=2 / keyint=48 / keyint_min=25 / scenecut=0 / intra_refresh=0 / rc=abr / mbtree=0 / bitrate=2560 / ratetol=1.0 / qcomp=0.60 / qpmin=10 / qpmax=51 / qpstep=4 / ip_ratio=1.40 / aq=1:1.00
Default : Yes
Forced : No

Audio
ID : 2
Format : AAC
Format/Info : Advanced Audio Codec
Format profile : LC
Codec ID : A_AAC-2
Duration : 1 h 26 min
Bit rate : 78.7 kb/s
Channel(s) : 2 channels
Channel positions : Front: L R
Sampling rate : 44.1 kHz
Frame rate : 43.066 FPS (1024 SPF)
Compression mode : Lossy
Stream size : 48.8 MiB (3%)
Default : Yes
Forced : No





WAGS S03E07


WAGS S03E07


WAGS S03E07


WAGS S03E07


WAGS S03E07

All episodes