WAGS S03E08

Posted By: Tavaz
720p (HD) / WEB-DL IMDb
WAGS S03E08

WAGS S03E08
WEB-DL | MKV | 1280x720 | English | H264 @ 3482 kbps | E-AC-3 @ 640 kbps | 43 min 47 s | 1.26 GiB
Subtitles: English

E! takes a wild ride into the world of some of today's hottest professional athletes from the perspective of the women who stand by their side, otherwise known as WAGS (Wives and Girlfriends of Sports Stars). These WAGS are playing the most competitive sport out there: getting and keeping that pro-athlete man. As part of an elite, exclusive group, the WAGS are close friends who are bound together by a strict hierarchy, unspoken rules and plenty of drama - and those who have the coveted ring and a husband with a contract are the ones with all the power! As in sports, this game is all about getting that "W" and this pack knows how to play the field…

fc90fdb607e94968bf079ed9acd4398e.mkv (1.3 GB)



General
Complete name : ./fc90fdb607e94968bf079ed9acd4398e.mkv
Format : Matroska
Format version : Version 4 / Version 2
File size : 1.26 GiB
Duration : 43 min 47 s
Overall bit rate mode : Variable
Overall bit rate : 4 125 kb/s
Encoded date : UTC 2017-12-18 12:25:57
Writing application : mkvmerge v14.0.0 ('Flow') 64bit
Writing library : libebml v1.3.4 + libmatroska v1.4.5

Video
ID : 1
Format : AVC
Format/Info : Advanced Video Codec
Format profile : High@L3.1
Format settings : CABAC / 5 Ref Frames
Format settings, CABAC : Yes
Format settings, RefFrames : 5 frames
Codec ID : V_MPEG4/ISO/AVC
Duration : 43 min 47 s
Bit rate mode : Variable
Bit rate : 3 483 kb/s
Maximum bit rate : 4 500 kb/s
Width : 1 280 pixels
Height : 720 pixels
Display aspect ratio : 16:9
Frame rate mode : Constant
Frame rate : 23.976 (24000/1001) FPS
Color space : YUV
Chroma subsampling : 4:2:0
Bit depth : 8 bits
Scan type : Progressive
Bits/(Pixel*Frame) : 0.158
Stream size : 1.07 GiB (84%)
Default : Yes
Forced : No
Color range : Limited
Color primaries : BT.709
Transfer characteristics : BT.709
Matrix coefficients : BT.709

Audio
ID : 2
Format : E-AC-3
Format/Info : Enhanced Audio Coding 3
Format settings, Endianness : Big
Codec ID : A_EAC3
Duration : 43 min 46 s
Bit rate mode : Constant
Bit rate : 640 kb/s
Channel(s) : 6 channels
Channel positions : Front: L C R, Side: L R, LFE
Sampling rate : 48.0 kHz
Frame rate : 187.500 FPS (256 SPF)
Compression mode : Lossy
Stream size : 200 MiB (16%)
Language : English
Service kind : Complete Main
Default : Yes
Forced : No

Text
ID : 3
Format : UTF-8
Codec ID : S_TEXT/UTF8
Codec ID/Info : UTF-8 Plain Text
Duration : 43 min 36 s
Bit rate : 114 b/s
Count of elements : 1077
Stream size : 36.6 KiB (0%)
Language : English
Default : No
Forced : No





WAGS S03E08


WAGS S03E08


WAGS S03E08


WAGS S03E08


WAGS S03E08

All episodes