BBC - Jeremy Clarkson: War Stories (2012)

Posted By: vivid23
BBC - Jeremy Clarkson: War Stories (2012)

BBC - Jeremy Clarkson: War Stories (2012)
PDTV | 720x416 | MP4/x264 @ 1609 Kbps | 2x58mn | Audio: English AC3 128 kbps, 2 channels | Subs: None | 2x722 MB
Genre: Documentary

Top Gear’s Jeremy Clarkson presents two fascinating and informative documentaries focusing on some of the bravest actions of World War II.

Part 1: Victoria Cross For Valour
In September 1944 at the Battle of Arnhem, Major Cain won what was described as the "finest Victoria Cross of the whole war". Telling his story, along with other personal accounts of staggering bravery, Jeremy Clarkson looks at the history of the highest military decoration awarded for valour in the face of the enemy.


Part 2: Greatest Raid of All
Jeremy Clarkson tells the story of one of the most daring operations of World War II – the Commando raid on the German occupied dry dock at St. Nazaire in France on 28th March 1942. It was an operation so successful and so heroic that it resulted in the award of five Victoria Crosses and 80 other decorations for gallantry.

DVD Extra Making of The Greatest Raid Of All

Video
ID : 1
Format : AVC
Format/Info : Advanced Video Codec
Format profile : High@L3.0
Format settings, CABAC : No
Format settings, ReFrames : 1 frame
Codec ID : avc1
Codec ID/Info : Advanced Video Coding
Duration : 58mn 0s
Bit rate mode : Variable
Bit rate : 1 609 Kbps
Width : 832 pixels
Height : 468 pixels
Display aspect ratio : 16:9
Frame rate mode : Constant
Frame rate : 25.000 fps
Color space : YUV
Chroma subsampling : 4:2:0
Bit depth : 8 bits
Scan type : Progressive
Bits/(Pixel*Frame) : 0.165
Stream size : 668 MiB (92%)
Encoded date : UTC 2013-01-19 13:58:14
Tagged date : UTC 2013-01-19 13:58:14

Audio
ID : 2
Format : AC-3
Format/Info : Audio Coding 3
Mode extension : CM (complete main)
Codec ID : ac-3
Duration : 58mn 0s
Bit rate mode : Constant
Bit rate : 128 Kbps
Channel(s) : 2 channels
Channel positions : Front: L R
Sampling rate : 48.0 KHz
Bit depth : 16 bits
Compression mode : Lossy
Stream size : 53.1 MiB (7%)
Encoded date : UTC 2013-01-19 13:58:14
Tagged date : UTC 2013-01-19 13:58:14


BBC - Jeremy Clarkson: War Stories (2012)

BBC - Jeremy Clarkson: War Stories (2012)


Feel free to contact me when links are dead



http://filepost.com/files/fdc28464/Jeremy.Clarkson.War.Stories_01.part1.rar
http://filepost.com/files/ea66755c/Jeremy.Clarkson.War.Stories_01.part2.rar
http://filepost.com/files/mfcc2e8m/Jeremy.Clarkson.War.Stories_01.part3.rar
http://filepost.com/files/9876d593/Jeremy.Clarkson.War.Stories_02.part1.rar
http://filepost.com/files/24c6ea48/Jeremy.Clarkson.War.Stories_02.part2.rar
http://filepost.com/files/e18c1ad1/Jeremy.Clarkson.War.Stories_02.part3.rar
http://filepost.com/files/c2c9dcc9/Jeremy.Clarkson.War.Stories_extra.part1.rar
http://filepost.com/files/ebf9eabe/Jeremy.Clarkson.War.Stories_extra.part2.rar

http://uploaded.net/file/uclip0ef/Jeremy.Clarkson.War.Stories_01.part1.rar
http://uploaded.net/file/y9o0qqbc/Jeremy.Clarkson.War.Stories_01.part2.rar
http://uploaded.net/file/rp2u1z4y/Jeremy.Clarkson.War.Stories_01.part3.rar
http://uploaded.net/file/lnjqszxw/Jeremy.Clarkson.War.Stories_02.part1.rar
http://uploaded.net/file/f0kxvqpf/Jeremy.Clarkson.War.Stories_02.part2.rar
http://uploaded.net/file/55g3d0wk/Jeremy.Clarkson.War.Stories_02.part3.rar
http://uploaded.net/file/0rjtdw36/Jeremy.Clarkson.War.Stories_extra.part1.rar
http://uploaded.net/file/1jr5rzud/Jeremy.Clarkson.War.Stories_extra.part2.rar

http://rapidgator.net/file/72280852/Jeremy.Clarkson.War.Stories_01.part1.rar
http://rapidgator.net/file/72280849/Jeremy.Clarkson.War.Stories_01.part2.rar
http://rapidgator.net/file/72280813/Jeremy.Clarkson.War.Stories_01.part3.rar
http://rapidgator.net/file/72280850/Jeremy.Clarkson.War.Stories_02.part1.rar
http://rapidgator.net/file/72280851/Jeremy.Clarkson.War.Stories_02.part2.rar
http://rapidgator.net/file/72280877/Jeremy.Clarkson.War.Stories_02.part3.rar
http://rapidgator.net/file/72280937/Jeremy.Clarkson.War.Stories_extra.part1.rar
http://rapidgator.net/file/72280870/Jeremy.Clarkson.War.Stories_extra.part2.rar