We All Fall Down (2016)

Posted By: JohnSmith
We All Fall Down (2016)

We All Fall Down (2016)
HDRip | AVI / XviD@1600 kb/s | 720x400 | 1h 20mn | 1.12 GB | English: AC3, 384 kb/s (6 ch)
WEB-DL 720p | AVI / XviD@3800 kb/s | 1280x716 | 1h 20mn | 2.35 GB | English: AC3, 384 kb/s (6 ch)
WEB-DL 1080p | MKV / AVC@5010 kb/s | 1908x1068 | 1h 20mn | 3.08 GB
English: AC3, 384 kb/s (6 ch) | Subtitles: English
Genre: Adventure | Drama | Horror | Sci-Fi | Thriller

Todd, a haunted young man, struggles to protect the innocence of Benny, his mute kid brother, in a post apocalyptic world where all the adults turned to zombies by a recessive gene. The gene continues to activate in the remaining feral kids as they reach adulthood, causing a short and vicious life span.




General
Complete name : E:\We.All.Fall.Down.2016.WEB-DL.XviD.AC3-FGT.avi
Format : AVI
Format/Info : Audio Video Interleave
File size : 1.12 GiB
Duration : 1 h 20 min
Overall bit rate : 1 992 kb/s
Movie name : We.All.Fall.Down.2016.WEB-DL.XviD.AC3-FGT
Writing library : VirtualDub build 35491/release
Comment : We.All.Fall.Down.2016.WEB-DL.XviD.AC3-FGT

Video
ID : 0
Format : MPEG-4 Visual
Format profile : Simple@L5
Format settings, BVOP : No
Format settings, QPel : No
Format settings, GMC : No warppoints
Format settings, Matrix : Default (H.263)
Codec ID : XVID
Codec ID/Hint : XviD
Duration : 1 h 20 min
Bit rate : 1 598 kb/s
Width : 720 pixels
Height : 400 pixels
Display aspect ratio : 16:9
Frame rate : 23.976 FPS
Color space : YUV
Chroma subsampling : 4:2:0
Bit depth : 8 bits
Scan type : Progressive
Compression mode : Lossy
Bits/(Pixel*Frame) : 0.231
Stream size : 917 MiB (80%)
Writing library : Lavc57.16.101

Audio
ID : 1
Format : AC-3
Format/Info : Audio Coding 3
Mode extension : CM (complete main)
Format settings, Endianness : Big
Codec ID : 2000
Duration : 1 h 20 min
Bit rate mode : Constant
Bit rate : 384 kb/s
Channel(s) : 6 channels
Channel positions : Front: L C R, Side: L R, LFE
Sampling rate : 48.0 kHz
Frame rate : 31.250 FPS (1536 spf)
Compression mode : Lossy
Stream size : 220 MiB (19%)
Alignment : Aligned on interleaves
Interleave, duration : 42 ms (1.00 video frame)
Interleave, preload duratio : 512 ms





General
Complete name : E:\We.All.Fall.Down.2016.720p.WEB-DL.XviD.AC3-FGT.avi
Format : AVI
Format/Info : Audio Video Interleave
Format profile : OpenDML
File size : 2.35 GiB
Duration : 1 h 20 min
Overall bit rate : 4 191 kb/s
Movie name : We.All.Fall.Down.2016.720p.WEB-DL.XviD.AC3-FGT
Writing library : VirtualDub build 35491/release
Comment : We.All.Fall.Down.2016.720p.WEB-DL.XviD.AC3-FGT

Video
ID : 0
Format : MPEG-4 Visual
Format profile : Simple@L5
Format settings, BVOP : No
Format settings, QPel : No
Format settings, GMC : No warppoints
Format settings, Matrix : Default (H.263)
Codec ID : XVID
Codec ID/Hint : XviD
Duration : 1 h 20 min
Bit rate : 3 796 kb/s
Width : 1 280 pixels
Height : 716 pixels
Display aspect ratio : 16:9
Frame rate : 23.976 FPS
Color space : YUV
Chroma subsampling : 4:2:0
Bit depth : 8 bits
Scan type : Progressive
Compression mode : Lossy
Bits/(Pixel*Frame) : 0.173
Stream size : 2.13 GiB (91%)
Writing library : Lavc57.24.102

Audio
ID : 1
Format : AC-3
Format/Info : Audio Coding 3
Mode extension : CM (complete main)
Format settings, Endianness : Big
Codec ID : 2000
Duration : 1 h 20 min
Bit rate mode : Constant
Bit rate : 384 kb/s
Channel(s) : 6 channels
Channel positions : Front: L C R, Side: L R, LFE
Sampling rate : 48.0 kHz
Frame rate : 31.250 FPS (1536 spf)
Compression mode : Lossy
Stream size : 220 MiB (9%)
Alignment : Aligned on interleaves
Interleave, duration : 42 ms (1.00 video frame)
Interleave, preload duratio : 512 ms





General
Unique ID : 254047060703506498926323445808638346221 (0xBF1FAF2467A6B62C81E68590B0F243ED)
Complete name : E:\We.All.Fall.Down.2016.1080p.WEB-DL.DD5.1.H264-FGT.mkv
Format : Matroska
Format version : Version 4 / Version 2
File size : 3.08 GiB
Duration : 1 h 20 min
Overall bit rate : 5 502 kb/s
Movie name : We.All.Fall.Down.2016.1080p.WEB-DL.DD5.1.H264-FGT
Encoded date : UTC 2017-02-07 06:43:04
Writing application : mkvmerge v9.6.0 ('Slave To Your Mind') 64bit
Writing library : libebml v1.3.4 + libmatroska v1.4.5
Cover : Yes
Attachments : small_cover.jpg / small_cover_land.jpg / cover.jpg / cover_land.jpg

Video
ID : 1
Format : AVC
Format/Info : Advanced Video Codec
Format profile : High@L4
Format settings, CABAC : Yes
Format settings, ReFrames : 4 frames
Codec ID : V_MPEG4/ISO/AVC
Duration : 1 h 20 min
Bit rate : 5 009 kb/s
Width : 1 908 pixels
Height : 1 068 pixels
Display aspect ratio : 16:9
Frame rate mode : Constant
Frame rate : 23.976 (24000/1001) FPS
Color space : YUV
Chroma subsampling : 4:2:0
Bit depth : 8 bits
Scan type : Progressive
Bits/(Pixel*Frame) : 0.103
Stream size : 2.81 GiB (91%)
Title : We.All.Fall.Down.2016.1080p.WEB-DL.DD5.1.H264-FGT
Language : English
Default : Yes
Forced : No
Color range : Limited
Color primaries : BT.709
Transfer characteristics : BT.709
Matrix coefficients : BT.709

Audio
ID : 2
Format : AC-3
Format/Info : Audio Coding 3
Mode extension : CM (complete main)
Format settings, Endianness : Big
Codec ID : A_AC3
Duration : 1 h 20 min
Bit rate mode : Constant
Bit rate : 384 kb/s
Channel(s) : 6 channels
Channel positions : Front: L C R, Side: L R, LFE
Sampling rate : 48.0 kHz
Frame rate : 31.250 FPS (1536 spf)
Compression mode : Lossy
Stream size : 220 MiB (7%)
Title : We.All.Fall.Down.2016.1080p.WEB-DL.DD5.1.H264-FGT
Language : English
Default : Yes
Forced : No

Text
ID : 3
Format : UTF-8
Codec ID : S_TEXT/UTF8
Codec ID/Info : UTF-8 Plain Text
Language : English
Default : Yes
Forced : No

Menu
00:00:00.000 : en:1
00:08:08.000 : en:2
00:22:00.000 : en:3
00:33:21.000 : en:4
00:42:13.000 : en:5
00:49:42.000 : en:6
01:02:07.000 : en:7
01:08:34.000 : en:8
01:17:20.000 : en:9




Screenshots HDRip

We All Fall Down (2016)

We All Fall Down (2016)

We All Fall Down (2016)


Screenshots WEB-DL 720p

We All Fall Down (2016)

We All Fall Down (2016)

We All Fall Down (2016)


Screenshots WEB-DL 1080p

We All Fall Down (2016)

We All Fall Down (2016)

We All Fall Down (2016)