Wendy and Lucy (2008)

Posted By: Without
Wendy and Lucy (2008)

Wendy and Lucy (2008)
BDRip 1080p | MKV | 1920x1080 | AVC@8224 kb/s | English DTS@1509 kb/s
Subs: English | 6 channels | 1 h 20 min | 5.45 GB
Genre: Drama

Over the summer, a series of unfortunate happening triggers a financial crisis for a young woman and she soon finds her life falling apart.

IMDB - 9 wins & 16 nominations.


General
Wendy.and.Lucy.2008.1080p.BluRay.x264-GECKOS\Wendy.and.Lucy.2008.1080p.BluRay.x264-GECKOS.mkv
Format : Matroska
Format version : Version 2
File size : 5.45 GiB
Duration : 1 h 20 min
Overall bit rate : 9 726 kb/s
Encoded date : UTC 2014-08-27 21:04:57
Writing application : mkvmerge v7.0.0 ('Where We Going') 32bit built on Jun 9 2014 15:08:34
Writing library : libebml v1.3.0 + libmatroska v1.4.1

Video
ID : 1
Format : AVC
Format/Info : Advanced Video Codec
Format profile : High@L4.1
Format settings, CABAC : Yes
Format settings, ReFrames : 4 frames
Codec ID : V_MPEG4/ISO/AVC
Duration : 1 h 20 min
Bit rate : 8 224 kb/s
Width : 1 920 pixels
Height : 1 080 pixels
Display aspect ratio : 16:9
Frame rate mode : Constant
Frame rate : 23.976 (24000/1001) FPS
Original frame rate : 23.976 (23976/1000) FPS
Color space : YUV
Chroma subsampling : 4:2:0
Bit depth : 8 bits
Scan type : Progressive
Bits/(Pixel*Frame) : 0.165
Stream size : 4.60 GiB (84%)
Writing library : x264 core 142 r2453 ea0ca51
Encoding settings : cabac=1 / ref=4 / deblock=1:0:0 / analyse=0x3:0x133 / me=umh / subme=8 / psy=1 / psy_rd=1.00:0.00 / mixed_ref=1 / me_range=16 / chroma_me=1 / trellis=1 / 8x8dct=1 / cqm=0 / deadzone=21,11 / fast_pskip=0 / chroma_qp_offset=-2 / threads=12 / lookahead_threads=2 / sliced_threads=0 / nr=0 / decimate=1 / interlaced=0 / bluray_compat=0 / constrained_intra=0 / bframes=3 / b_pyramid=2 / b_adapt=2 / b_bias=0 / direct=3 / weightb=1 / open_gop=0 / weightp=2 / keyint=250 / keyint_min=23 / scenecut=40 / intra_refresh=0 / rc_lookahead=50 / rc=2pass / mbtree=1 / bitrate=8224 / ratetol=1.0 / qcomp=0.60 / qpmin=0 / qpmax=69 / qpstep=4 / cplxblur=20.0 / qblur=0.5 / ip_ratio=1.40 / aq=1:1.00
Language : English
Default : Yes
Forced : No

Audio
ID : 2
Format : DTS
Format/Info : Digital Theater Systems
Mode : 16
Format settings, Endianness : Big
Codec ID : A_DTS
Duration : 1 h 20 min
Bit rate mode : Constant
Bit rate : 1 509 kb/s
Channel(s) : 6 channels
Channel positions : Front: L C R, Side: L R, LFE
Sampling rate : 48.0 kHz
Frame rate : 93.750 FPS (512 spf)
Bit depth : 24 bits
Compression mode : Lossy
Stream size : 866 MiB (16%)
Language : English
Default : Yes
Forced : No

Text
ID : 3
Format : UTF-8
Codec ID : S_TEXT/UTF8
Codec ID/Info : UTF-8 Plain Text
Duration : 1 h 11 min
Bit rate : 33 b/s
Count of elements : 549
Stream size : 17.7 KiB (0%)
Language : English
Default : Yes
Forced : No

Menu
00:00:00.000 : en:00:00:00.000
00:08:22.877 : en:00:08:22.877
00:16:55.806 : en:00:16:55.806
00:28:29.625 : en:00:28:29.625
00:40:08.906 : en:00:40:08.906
00:48:26.278 : en:00:48:26.278
00:55:36.625 : en:00:55:36.625
01:01:35.150 : en:01:01:35.150
01:08:40.074 : en:01:08:40.074
01:15:08.337 : en:01:15:08.337


BDRip 1080p Screenshots

Wendy and Lucy (2008)

Wendy and Lucy (2008)

Wendy and Lucy (2008)

Wendy and Lucy (2008)

Wendy and Lucy (2008)

Wendy and Lucy (2008)


Come Visit My Blog (•‿•)